<?xml version="1.0" standalone="no"?>
<!DOCTYPE svg PUBLIC "-//W3C//DTD SVG 1.1//EN" "http://www.w3.org/Graphics/SVG/1.1/DTD/svg11.dtd" >
<svg xmlns="http://www.w3.org/2000/svg" xmlns:xlink="http://www.w3.org/1999/xlink" version="1.1">
<metadata></metadata>
<defs>
<font id="noto_sanssemibold" horiz-adv-x="1171" >
<font-face units-per-em="2048" ascent="1638" descent="-410" />
<missing-glyph horiz-adv-x="532" />
<glyph horiz-adv-x="0" />
<glyph horiz-adv-x="682" />
<glyph horiz-adv-x="0" />
<glyph horiz-adv-x="0" />
<glyph unicode="&#xd;" horiz-adv-x="532" />
<glyph unicode=" "  horiz-adv-x="532" />
<glyph unicode="&#x09;" horiz-adv-x="532" />
<glyph unicode="&#xa0;" horiz-adv-x="532" />
<glyph unicode="!" horiz-adv-x="573" d="M129 131q0 86 46 122t112 36q63 0 109 -36t46 -122q0 -84 -46 -121t-109 -37q-66 0 -112 37t-46 121zM137 1462h299l-51 -1005h-197z" />
<glyph unicode="&#x22;" horiz-adv-x="917" d="M133 1462h248l-41 -528h-166zM537 1462h247l-41 -528h-165z" />
<glyph unicode="#" horiz-adv-x="1323" d="M47 414v180h281l53 268h-260v180h293l80 418h190l-78 -418h234l80 418h186l-78 -418h246v-180h-281l-53 -268h266v-180h-301l-80 -414h-190l80 414h-232l-77 -414h-189l76 414h-246zM516 594h234l53 268h-234z" />
<glyph unicode="$" d="M102 1044q0 154 115 243t301 104v163h135v-159q113 -4 209 -25.5t185 -60.5l-80 -203q-76 31 -157 50.5t-157 25.5v-340q121 -39 217.5 -86t152.5 -118t56 -183q0 -147 -107.5 -243.5t-318.5 -117.5v-213h-135v207q-125 2 -230.5 23.5t-183.5 56.5v229q78 -37 193 -67.5 t221 -34.5v348q-150 53 -241 107.5t-133 125t-42 168.5zM356 1051q0 -57 37 -92t125 -66v285q-162 -18 -162 -127zM653 303q172 25 172 137q0 55 -40 88t-132 66v-291z" />
<glyph unicode="%" horiz-adv-x="1792" d="M78 1026q0 217 77.5 337t247.5 120q164 0 250 -120t86 -337t-80.5 -339t-255.5 -122q-160 0 -242.5 122t-82.5 339zM291 1024q0 -281 115 -281q119 0 118 281q1 281 -118 281q-115 0 -115 -281zM385 0l811 1462h209l-811 -1462h-209zM1053 442q0 217 78.5 337t248.5 120 q164 0 249 -120t85 -337t-80 -338.5t-254 -121.5q-162 0 -244.5 121.5t-82.5 338.5zM1266 440q0 -283 114 -282q121 0 121 282q0 279 -121 279q-115 0 -114 -279z" />
<glyph unicode="&#x26;" horiz-adv-x="1521" d="M92 389q0 156 77 250t210 170q-76 86 -117 166t-41 178q0 154 113 242t297 88q172 0 280.5 -82t108.5 -234q0 -137 -84 -231t-209 -166l326 -315q45 66 76.5 145.5t54.5 163.5h266q-33 -121 -88 -245t-141 -226l299 -293h-326l-139 135q-92 -70 -203 -112.5t-256 -42.5 q-236 0 -370 110.5t-134 298.5zM362 410q0 -96 70 -153.5t178 -57.5q90 0 162 26.5t125 67.5l-367 360q-78 -51 -123 -106t-45 -137zM465 1141q0 -59 30.5 -112.5t84.5 -113.5q100 55 148 108.5t48 123.5q0 66 -45 100.5t-104 34.5q-66 0 -114 -34t-48 -107z" />
<glyph unicode="'" horiz-adv-x="514" d="M133 1462h248l-41 -528h-166z" />
<glyph unicode="(" horiz-adv-x="663" d="M82 561q0 250 72.5 482.5t228.5 418.5h219q-139 -193 -212 -424t-73 -475q0 -238 73 -467t210 -420h-217q-156 180 -228.5 408.5t-72.5 476.5z" />
<glyph unicode=")" horiz-adv-x="663" d="M61 1462h220q156 -186 228.5 -418.5t72.5 -482.5q0 -248 -73 -476t-228 -409h-218q139 190 212 420t73 467q0 244 -72.5 475.5t-214.5 423.5z" />
<glyph unicode="*" horiz-adv-x="1120" d="M72 1059l34 227l373 -108l-41 378h240l-41 -378l379 108l33 -229l-355 -27l232 -307l-209 -111l-162 330l-145 -330l-215 111l227 307z" />
<glyph unicode="+" d="M94 627v190h393v404h193v-404h395v-190h-395v-400h-193v400h-393z" />
<glyph unicode="," horiz-adv-x="571" d="M72 -264q29 121 56.5 258t43.5 244h248l14 -23q-29 -109 -77 -238t-99 -241h-186z" />
<glyph unicode="-" horiz-adv-x="659" d="M70 440v217h520v-217h-520z" />
<glyph unicode="." horiz-adv-x="571" d="M129 131q0 86 46 122t110 36q63 0 110 -36t47 -122q0 -84 -47 -121t-110 -37t-109.5 37t-46.5 121z" />
<glyph unicode="/" horiz-adv-x="815" d="M16 0l545 1462h240l-545 -1462h-240z" />
<glyph unicode="0" d="M84 731q0 236 49 405t158.5 259t292.5 90q256 0 378.5 -199t122.5 -555q0 -236 -49 -403.5t-159.5 -257.5t-292.5 -90q-258 0 -379 198.5t-121 552.5zM344 731q0 -268 52.5 -403t187.5 -135q133 0 187 134t54 404q0 268 -54 404.5t-187 136.5q-135 0 -187.5 -136.5 t-52.5 -404.5z" />
<glyph unicode="1" d="M143 1112l443 350h215v-1462h-258v911q0 66 2 139.5t6 137.5q-20 -20 -50 -49t-65 -56l-164 -131z" />
<glyph unicode="2" d="M88 0v190l373 377q111 113 181.5 193t104 150.5t33.5 152.5q0 100 -56 150.5t-153 50.5q-92 0 -172 -38t-166 -108l-141 170q90 78 204 136.5t290 58.5q141 0 242.5 -50.5t156.5 -139.5t55 -203q0 -119 -47 -218.5t-136 -199t-212 -213.5l-231 -223v-13h676v-223h-1002z " />
<glyph unicode="3" d="M84 59v228q92 -47 196.5 -72t196.5 -25q178 0 252 64.5t74 179.5q0 109 -86 162t-287 53h-123v207h125q195 0 268.5 63.5t73.5 163.5q0 88 -57.5 137.5t-171.5 49.5q-111 0 -191 -36t-143 -77l-123 178q84 61 198.5 104.5t270.5 43.5q227 0 351 -96.5t124 -258.5 q0 -150 -87 -238.5t-224 -119.5v-6q176 -23 266 -111t90 -231q0 -127 -61.5 -227.5t-189.5 -157.5t-328 -57q-121 0 -222.5 19t-191.5 60z" />
<glyph unicode="4" d="M39 313v193l657 960h248v-942h191v-211h-191v-313h-254v313h-651zM274 524h416v328q0 57 2 119.5t5 117t5 82.5h-8q-18 -41 -39.5 -80.5t-48.5 -78.5z" />
<glyph unicode="5" d="M111 59v230q76 -41 181 -67.5t202 -26.5q145 0 228 63.5t83 198.5q0 121 -78 185.5t-242 64.5q-59 0 -124.5 -10.5t-108.5 -20.5l-111 61l56 725h770v-225h-543l-31 -338q35 6 83 13.5t120 7.5q139 0 245.5 -51.5t167 -148.5t60.5 -239q0 -236 -146.5 -368.5 t-422.5 -132.5q-115 0 -216.5 20t-172.5 59z" />
<glyph unicode="6" d="M88 623q0 127 17.5 249.5t62.5 232t125 194.5t204 133.5t300 48.5q43 0 98 -4t92 -13v-213q-80 23 -176 23q-184 0 -286.5 -66.5t-143.5 -182.5t-49 -259h12q43 72 123 122t207 50q190 0 305 -119t115 -338q0 -236 -131.5 -368.5t-354.5 -132.5q-145 0 -263 69.5 t-187.5 212t-69.5 361.5zM348 508q0 -76 29 -148.5t85 -121t142 -48.5q104 0 170 71t66 218q0 119 -57.5 187.5t-172.5 68.5q-80 0 -138 -33.5t-91 -86t-33 -107.5z" />
<glyph unicode="7" d="M68 1239v223h1024v-174l-570 -1288h-276l569 1239h-747z" />
<glyph unicode="8" d="M82 371q0 100 39 173.5t104.5 127t145.5 92.5q-100 61 -171 148t-71 221q0 113 62.5 190.5t166 117.5t228.5 40q127 0 229.5 -39t163.5 -118t61 -194q0 -131 -77.5 -216t-190.5 -142q84 -43 155.5 -96t115.5 -126t44 -171q0 -121 -63 -211t-175 -139t-261 -49 q-244 0 -375 104t-131 287zM328 383q0 -90 63.5 -148.5t192.5 -58.5q127 0 192.5 57.5t65.5 149.5t-74 153.5t-174 106.5l-29 14q-111 -51 -174 -115.5t-63 -158.5zM377 1114q0 -90 61.5 -143t149.5 -92q84 37 144.5 90t60.5 145q0 82 -58.5 127t-150.5 45q-90 0 -148.5 -45 t-58.5 -127z" />
<glyph unicode="9" d="M80 977q0 236 131 370t354 134q145 0 263 -70t187.5 -212t69.5 -361q0 -125 -18 -249t-63.5 -233.5t-125 -194.5t-203.5 -133t-300 -48q-41 0 -98.5 4t-92.5 12v213q80 -23 176 -23q184 0 287 66.5t145 181.5t48 258h-13q-45 -70 -120.5 -120t-212.5 -50q-186 0 -300 119 t-114 336zM334 981q0 -121 56 -189.5t173 -68.5q80 0 139.5 34t91 87t31.5 108q0 76 -28.5 147.5t-85 120t-142.5 48.5q-104 0 -169.5 -70t-65.5 -217z" />
<glyph unicode=":" horiz-adv-x="571" d="M129 131q0 86 46 122t110 36q63 0 110 -36t47 -122q0 -84 -47 -121t-110 -37t-109.5 37t-46.5 121zM129 975q0 88 46 124t110 36q63 0 110 -36t47 -124q0 -82 -47 -120t-110 -38t-109.5 38t-46.5 120z" />
<glyph unicode=";" horiz-adv-x="571" d="M63 -264q29 119 59 257t44 245h248l14 -23q-27 -109 -77 -239t-99 -240h-189zM127 975q0 88 45 124t111 36t111.5 -36t45.5 -124q0 -82 -46 -120t-111 -38q-66 0 -111 38t-45 120z" />
<glyph unicode="&#x3c;" d="M94 649v127l981 492v-211l-717 -334l717 -297v-211z" />
<glyph unicode="=" d="M98 428v190h973v-190h-973zM98 823v191h973v-191h-973z" />
<glyph unicode="&#x3e;" d="M94 215v211l717 295l-717 336v211l981 -492v-127z" />
<glyph unicode="?" horiz-adv-x="944" d="M12 1368q94 51 205 83t244 32q207 0 319.5 -99.5t112.5 -261.5q0 -88 -27.5 -150.5t-82 -115.5t-130.5 -113q-63 -49 -96 -83.5t-45 -68.5t-12 -83v-51h-219v67q0 106 39.5 178t142.5 152q102 78 144 129t42 127q0 78 -54 119t-155 41q-90 0 -172 -26.5t-164 -67.5z M242 131q0 86 46 122t111 36q63 0 109.5 -36t46.5 -122q0 -84 -46 -121t-110 -37q-66 0 -111.5 37t-45.5 121z" />
<glyph unicode="@" horiz-adv-x="1839" d="M109 580q0 188 60 349t175 280.5t275.5 186t363.5 66.5q217 0 386 -88t265.5 -252t96.5 -389q0 -94 -22.5 -186t-68 -166t-114 -118t-160.5 -44q-84 0 -139.5 42t-75.5 106h-12q-41 -59 -111 -103.5t-170 -44.5q-174 0 -267 107.5t-93 281.5q0 137 57 241.5t160.5 165 t247.5 60.5q94 0 191 -16.5t151 -36.5l-21 -418q-2 -27 -2 -46v-26q0 -94 28.5 -123.5t67.5 -29.5q51 0 88 48t55.5 130t18.5 178q0 178 -72.5 303t-198.5 190.5t-284 65.5q-223 0 -374.5 -92t-230.5 -251.5t-79 -364.5q0 -287 152.5 -439.5t441.5 -152.5q121 0 244 26.5 t223 63.5v-172q-96 -39 -213 -63.5t-250 -24.5q-248 0 -425 90t-271 259t-94 407zM702 604q0 -119 48.5 -172t132.5 -53q106 0 151 79t53 206l13 235q-25 6 -58.5 10t-70.5 4q-98 0 -157.5 -45t-85.5 -115.5t-26 -148.5z" />
<glyph unicode="A" horiz-adv-x="1374" d="M0 0l537 1468h299l536 -1468h-278l-133 387h-551l-131 -387h-279zM481 612h412l-127 377q-8 27 -24.5 77t-31 102.5t-24.5 86.5q-10 -43 -25.5 -96t-29 -100t-21.5 -70z" />
<glyph unicode="B" horiz-adv-x="1359" d="M190 0v1462h441q285 0 431 -82t146 -284q0 -127 -63.5 -212t-181.5 -108v-10q80 -16 144 -53t103 -107.5t39 -185.5q0 -199 -141 -309.5t-383 -110.5h-535zM453 219h237q160 0 222.5 62.5t62.5 162.5q0 96 -64.5 153.5t-232.5 57.5h-225v-436zM453 866h213 q156 0 214 50.5t58 144.5q0 98 -70.5 141t-222.5 43h-192v-379z" />
<glyph unicode="C" horiz-adv-x="1300" d="M121 731q0 221 80 390t234.5 265.5t377.5 96.5q111 0 218.5 -24.5t201.5 -72.5l-90 -215q-78 35 -161 63t-169 28q-199 0 -309.5 -142.5t-110.5 -390.5q0 -250 102.5 -389t315.5 -139q92 0 181 19.5t184 51.5v-223q-90 -37 -181.5 -53t-210.5 -16q-225 0 -372.5 93 t-219 262t-71.5 396z" />
<glyph unicode="D" horiz-adv-x="1507" d="M190 0v1462h455q227 0 393 -82t257 -242t91 -393q0 -371 -206.5 -558t-577.5 -187h-412zM453 219h157q502 0 502 518q0 262 -121 385t-346 123h-192v-1026z" />
<glyph unicode="E" horiz-adv-x="1142" d="M190 0v1462h832v-219h-569v-373h532v-219h-532v-430h569v-221h-832z" />
<glyph unicode="F" horiz-adv-x="1101" d="M190 0v1462h830v-219h-571v-430h532v-219h-532v-594h-259z" />
<glyph unicode="G" horiz-adv-x="1486" d="M121 733q0 229 89 397t259 260.5t414 92.5q121 0 231.5 -24.5t202.5 -63.5l-90 -215q-72 33 -162 57.5t-188 24.5q-150 0 -258.5 -66t-167 -185.5t-58.5 -281.5q0 -156 45 -274.5t143.5 -186t256.5 -67.5q78 0 132 8t99 18v353h-295v223h553v-744q-117 -39 -239.5 -59 t-278.5 -20q-332 0 -510 196.5t-178 556.5z" />
<glyph unicode="H" horiz-adv-x="1548" d="M190 0v1462h263v-590h643v590h262v-1462h-262v649h-643v-649h-263z" />
<glyph unicode="I" horiz-adv-x="757" d="M72 0v150l176 65v1030l-176 68v149h614v-149l-176 -68v-1030l176 -65v-150h-614z" />
<glyph unicode="J" horiz-adv-x="632" d="M-156 -172q33 -8 70 -14.5t78 -6.5q53 0 97 20.5t70.5 76t26.5 157.5v1401h263v-1394q0 -256 -120 -369t-313 -113q-57 0 -99 6.5t-73 16.5v219z" />
<glyph unicode="K" horiz-adv-x="1325" d="M190 0v1462h263v-688q41 53 84 105.5t86 105.5l395 477h297l-537 -643l547 -819h-301l-434 647l-137 -108v-539h-263z" />
<glyph unicode="L" horiz-adv-x="1126" d="M190 0v1462h263v-1241h610v-221h-873z" />
<glyph unicode="M" horiz-adv-x="1902" d="M190 0v1462h365l385 -1149h8l402 1149h364v-1462h-250v770q0 70 3 153t6.5 157.5t5.5 115.5h-9l-417 -1196h-234l-401 1198h-8q4 -41 7 -115.5t6 -161.5t3 -163v-758h-236z" />
<glyph unicode="N" horiz-adv-x="1624" d="M190 0v1462h324l690 -1138h6q-2 82 -7 188t-7 207v743h238v-1462h-326l-692 1147h-8q4 -92 9 -197.5t9 -212.5v-737h-236z" />
<glyph unicode="O" horiz-adv-x="1617" d="M121 735q0 225 74.5 394t227 262.5t388.5 93.5q231 0 384 -93.5t227.5 -262.5t74.5 -396t-74.5 -396t-228.5 -263t-385 -94q-236 0 -387.5 94t-226 264t-74.5 397zM397 733q0 -248 99.5 -389t312.5 -141q219 0 315.5 141t96.5 389t-96.5 389.5t-313.5 141.5 q-215 0 -314.5 -141.5t-99.5 -389.5z" />
<glyph unicode="P" horiz-adv-x="1267" d="M190 0v1462h437q285 0 414.5 -117.5t129.5 -328.5q0 -125 -53 -233.5t-179 -176t-341 -67.5h-145v-539h-263zM453 756h118q160 0 247 58t87 192q0 121 -71.5 180t-223.5 59h-157v-489z" />
<glyph unicode="Q" horiz-adv-x="1617" d="M121 735q0 225 74.5 394t227 262.5t388.5 93.5q231 0 384 -93.5t227.5 -262.5t74.5 -396q0 -254 -95 -437t-290 -261l352 -383h-348l-272 328h-35q-236 0 -387.5 94t-226 264t-74.5 397zM397 733q0 -248 99.5 -389t312.5 -141q219 0 315.5 141t96.5 389t-96.5 389.5 t-313.5 141.5q-215 0 -314.5 -141.5t-99.5 -389.5z" />
<glyph unicode="R" horiz-adv-x="1323" d="M190 0v1462h416q289 0 427 -106.5t138 -323.5q0 -106 -39.5 -182t-104 -126t-136.5 -81l420 -643h-295l-350 578h-213v-578h-263zM453 793h145q164 0 235.5 58t71.5 173q0 119 -76.5 169t-238.5 50h-137v-450z" />
<glyph unicode="S" horiz-adv-x="1126" d="M98 61v246q92 -41 204 -74.5t224 -33.5q133 0 193.5 52t60.5 134q0 90 -77.5 144.5t-227.5 117.5q-90 37 -173 91.5t-135 137t-52 207.5q0 186 132 293t353 107q115 0 218.5 -24.5t203.5 -69.5l-84 -211q-92 39 -175 61.5t-171 22.5q-106 0 -161.5 -47.5t-55.5 -124.5 q0 -59 30.5 -101.5t95 -77t167.5 -80.5q119 -51 201.5 -107t126.5 -133t44 -192q0 -195 -141 -307t-391 -112q-242 0 -410 81z" />
<glyph unicode="T" horiz-adv-x="1167" d="M33 1241v221h1102v-221h-420v-1241h-262v1241h-420z" />
<glyph unicode="U" horiz-adv-x="1529" d="M178 520v942h262v-915q0 -180 81 -262t245 -82q170 0 247 89t77 257v913h260v-946q0 -152 -64.5 -273.5t-196 -192t-331.5 -70.5q-285 0 -432.5 148t-147.5 392z" />
<glyph unicode="V" horiz-adv-x="1292" d="M0 1462h268l295 -895q12 -37 28.5 -95t32 -119.5t23.5 -106.5q8 45 22.5 105.5t31 118.5t28.5 97l295 895h268l-506 -1462h-280z" />
<glyph unicode="W" horiz-adv-x="1951" d="M10 1462h262l201 -833q14 -53 27.5 -121t26 -134.5t18.5 -115.5q6 53 18 119.5t25.5 131t27.5 109.5l230 844h254l233 -846q14 -47 28.5 -112.5t27 -131t18.5 -114.5q6 49 18.5 115.5t26.5 133t27 122.5l200 833h263l-379 -1462h-289l-232 840q-10 41 -25.5 105.5 t-28.5 124.5t-15 91q-4 -31 -16.5 -91t-27 -124.5t-26.5 -109.5l-225 -836h-291z" />
<glyph unicode="X" horiz-adv-x="1302" d="M4 0l485 758l-454 704h289l331 -544l330 544h281l-457 -714l491 -748h-299l-358 584l-360 -584h-279z" />
<glyph unicode="Y" horiz-adv-x="1232" d="M0 1462h285l331 -645l334 645h283l-485 -893v-569h-263v559z" />
<glyph unicode="Z" horiz-adv-x="1179" d="M59 0v178l727 1063h-706v221h1020v-178l-725 -1063h745v-221h-1061z" />
<glyph unicode="[" horiz-adv-x="675" d="M152 -324v1786h473v-186h-246v-1413h246v-187h-473z" />
<glyph unicode="\" horiz-adv-x="815" d="M16 1462h238l545 -1462h-238z" />
<glyph unicode="]" horiz-adv-x="675" d="M51 -137h246v1413h-246v186h473v-1786h-473v187z" />
<glyph unicode="^" d="M59 530l437 940h127l489 -940h-209l-340 678l-297 -678h-207z" />
<glyph unicode="_" horiz-adv-x="866" d="M-4 -184h874v-135h-874v135z" />
<glyph unicode="`" horiz-adv-x="677" d="M82 1548v21h295q27 -45 65.5 -101.5t80.5 -108.5t73 -91v-27h-170q-51 37 -119.5 94.5t-130 116.5t-94.5 96z" />
<glyph unicode="a" horiz-adv-x="1204" d="M90 324q0 172 126 258t382 96l193 6v55q0 106 -51.5 151.5t-143.5 45.5q-84 0 -161 -23.5t-152 -58.5l-82 180q82 43 187 69.5t220 26.5q215 0 327 -94t112 -291v-745h-183l-51 154h-8q-72 -90 -152 -132t-217 -42q-150 0 -248 83.5t-98 260.5zM354 322q0 -80 46 -114 t122 -34q113 0 191 64.5t78 191.5v94l-136 -4q-170 -6 -235.5 -58t-65.5 -140z" />
<glyph unicode="b" horiz-adv-x="1282" d="M166 0v1556h258v-368q0 -66 -4 -127.5t-8 -95.5h12q45 70 123 117.5t203 47.5q193 0 312.5 -145t119.5 -428q0 -287 -121 -432t-318 -145q-125 0 -199.5 45t-119.5 104h-18l-48 -129h-192zM424 557q0 -178 54 -272.5t202 -94.5q115 0 176.5 95.5t61.5 273.5 q0 182 -62.5 272.5t-179.5 90.5q-139 0 -194.5 -84t-57.5 -258v-23z" />
<glyph unicode="c" horiz-adv-x="1026" d="M100 549q0 205 69 333t189.5 188t276.5 60q102 0 185 -20t141 -49l-76 -203q-66 25 -129.5 42.5t-120.5 17.5q-270 0 -270 -367q0 -178 68.5 -268t197.5 -90q92 0 164.5 22.5t136.5 60.5v-223q-63 -39 -137.5 -56t-180.5 -17q-238 0 -376 137t-138 432z" />
<glyph unicode="d" horiz-adv-x="1282" d="M100 553q0 287 121 432t318 145q123 0 201.5 -47t125.5 -114h13q-6 29 -12.5 87t-6.5 111v389h258v-1556h-200l-48 145h-10q-47 -70 -125 -117.5t-203 -47.5q-193 0 -312.5 144t-119.5 429zM362 549q0 -176 63.5 -268.5t184.5 -92.5q143 0 201.5 82t60.5 248v33 q0 178 -56 273.5t-210 95.5q-119 0 -181.5 -97.5t-62.5 -273.5z" />
<glyph unicode="e" horiz-adv-x="1189" d="M100 547q0 285 140.5 434t371.5 149q223 0 353.5 -133t130.5 -370v-131h-734q4 -152 84 -235t222 -83q106 0 192 21.5t176 62.5v-207q-82 -39 -170 -57t-211 -18q-164 0 -288.5 62t-195.5 188t-71 317zM369 676h477q-2 115 -58.5 189.5t-175.5 74.5q-104 0 -168.5 -66.5 t-74.5 -197.5z" />
<glyph unicode="f" horiz-adv-x="759" d="M37 915v123l178 74v76q0 213 101.5 296t277.5 83q80 0 146.5 -13.5t109.5 -29.5l-66 -193q-35 10 -76.5 19.5t-91.5 9.5q-76 0 -109.5 -46t-33.5 -132v-72h268v-195h-268v-915h-258v915h-178z" />
<glyph unicode="g" horiz-adv-x="1282" d="M100 553q0 270 116 423.5t323 153.5q215 0 329 -163h11l24 143h215v-1118q0 -238 -133 -361t-401 -123q-119 0 -219.5 15.5t-190.5 52.5v213q94 -41 201.5 -63.5t224.5 -22.5q125 0 192.5 70.5t67.5 206.5v28q0 31 2 72t6 65h-8q-57 -86 -140 -125.5t-188 -39.5 q-203 0 -317.5 151.5t-114.5 421.5zM610 184q135 0 199.5 75t64.5 253v39q0 197 -64.5 283t-203.5 86q-241 0 -241 -368t245 -368z" />
<glyph unicode="h" horiz-adv-x="1314" d="M166 0v1556h258v-370q0 -66 -5 -128.5t-9 -92.5h16q53 84 139 124.5t191 40.5q188 0 294.5 -97t106.5 -310v-723h-258v672q0 125 -49 187.5t-156 62.5q-156 0 -213 -98.5t-57 -280.5v-543h-258z" />
<glyph unicode="i" horiz-adv-x="587" d="M152 1403q0 76 42 105.5t101 29.5q57 0 100 -29.5t43 -105.5t-43 -106.5t-100 -30.5q-59 0 -101 30.5t-42 106.5zM166 0v1110h258v-1110h-258z" />
<glyph unicode="j" horiz-adv-x="587" d="M-125 -262q35 -8 67.5 -14.5t73.5 -6.5q63 0 106.5 35t43.5 137v1221h258v-1247q0 -154 -85 -254.5t-280 -100.5q-51 0 -100 7.5t-84 17.5v205zM152 1403q0 76 42 105.5t101 29.5q57 0 100 -29.5t43 -105.5t-43 -106.5t-100 -30.5q-59 0 -101 30.5t-42 106.5z" />
<glyph unicode="k" horiz-adv-x="1204" d="M166 0v1556h256v-739q0 -51 -4 -111.5t-8 -113.5h6q27 37 61.5 84t69.5 84l327 350h293l-444 -479l473 -631h-301l-344 475l-129 -106v-369h-256z" />
<glyph unicode="l" horiz-adv-x="587" d="M166 0v1556h258v-1556h-258z" />
<glyph unicode="m" horiz-adv-x="1974" d="M166 0v1110h199l36 -145h15q51 86 139 125.5t184 39.5q125 0 210 -40.5t130 -131.5h21q51 90 143.5 131t194.5 41q188 0 283.5 -96t95.5 -311v-723h-258v674q0 248 -189 248q-135 0 -192.5 -88.5t-57.5 -255.5v-578h-258v674q0 248 -190 248q-141 0 -194.5 -98.5 t-53.5 -280.5v-543h-258z" />
<glyph unicode="n" horiz-adv-x="1314" d="M166 0v1110h199l36 -145h15q53 86 146.5 125.5t197.5 39.5q186 0 291.5 -96t105.5 -311v-723h-258v672q0 125 -49 187.5t-156 62.5q-156 0 -213 -98.5t-57 -280.5v-543h-258z" />
<glyph unicode="o" horiz-adv-x="1257" d="M100 557q0 276 142.5 424.5t388.5 148.5q154 0 272.5 -66.5t186 -194.5t67.5 -312q0 -276 -143.5 -426.5t-388.5 -150.5q-152 0 -270.5 67.5t-186.5 196.5t-68 313zM365 557q0 -176 62 -272.5t202 -96.5q137 0 200.5 96.5t63.5 272.5t-63.5 270.5t-202.5 94.5 t-200.5 -94.5t-61.5 -270.5z" />
<glyph unicode="p" horiz-adv-x="1282" d="M166 -492v1602h209l37 -147h12q47 70 123 118.5t203 48.5q195 0 313.5 -144t118.5 -429t-122 -431t-317 -146q-123 0 -198.5 45t-120.5 104h-16q6 -39 11 -84t5 -86v-451h-258zM424 559q0 -178 54 -273.5t202 -95.5q121 0 179.5 99.5t58.5 271.5t-58.5 266.5t-183.5 94.5 q-137 0 -193.5 -82t-58.5 -248v-33z" />
<glyph unicode="q" horiz-adv-x="1282" d="M100 553q0 285 122 431t315 146q127 0 204.5 -48t126.5 -117h9l26 145h215v-1602h-258v469q0 39 2 84t8 84h-12q-45 -70 -124 -117.5t-204 -47.5q-193 0 -311.5 144t-118.5 429zM365 549q0 -178 60 -271.5t187 -93.5q141 0 198.5 82t61.5 248v37q0 180 -57 274.5 t-207 94.5q-125 0 -184 -97.5t-59 -273.5z" />
<glyph unicode="r" horiz-adv-x="899" d="M166 0v1110h199l36 -192h13q49 88 135 150t199 62q27 0 59.5 -3t52.5 -7l-22 -239q-20 4 -50 7t-51 3q-82 0 -153.5 -34t-115.5 -103.5t-44 -178.5v-575h-258z" />
<glyph unicode="s" horiz-adv-x="1003" d="M96 827q0 150 119 226.5t313 76.5q102 0 193.5 -20t183.5 -61l-82 -191q-78 33 -151.5 55.5t-151.5 22.5q-170 0 -170 -96q0 -35 21.5 -59.5t76 -52.5t154.5 -66q98 -39 170 -81t111 -102.5t39 -156.5q0 -168 -120 -255t-343 -87q-117 0 -200 16t-161 51v219 q82 -39 181.5 -65.5t187.5 -26.5q106 0 153.5 33t47.5 88q0 33 -18.5 58.5t-72 56t-161.5 75.5q-106 43 -177 86t-107 102.5t-36 153.5z" />
<glyph unicode="t" horiz-adv-x="831" d="M41 915v113l164 90l82 236h162v-244h315v-195h-315v-575q0 -78 42 -116t105 -38q47 0 93 9.5t85 21.5v-192q-41 -20 -106.5 -32.5t-137.5 -12.5q-96 0 -172.5 30.5t-122 108.5t-45.5 219v577h-149z" />
<glyph unicode="u" horiz-adv-x="1314" d="M158 385v725h258v-674q0 -125 49 -186.5t156 -61.5q156 0 214 98.5t58 280.5v543h258v-1110h-203l-35 143h-12q-53 -86 -147.5 -124.5t-198.5 -38.5q-186 0 -291.5 96t-105.5 309z" />
<glyph unicode="v" horiz-adv-x="1118" d="M0 1110h272l222 -641q23 -59 39 -131t20 -121h8q6 53 24.5 123t39.5 129l221 641h272l-422 -1110h-274z" />
<glyph unicode="w" horiz-adv-x="1699" d="M20 1112h261l137 -530q14 -55 27.5 -123t23.5 -129.5t14 -100.5h9q4 37 15 100.5t23.5 124t20.5 91.5l160 567h282l154 -567q8 -37 21.5 -96.5t23.5 -119t12 -98.5h8q4 35 14.5 95.5t25 129t30.5 126.5l139 530h256l-315 -1112h-287l-123 477q-10 37 -24.5 96.5 t-29.5 123t-27.5 117.5t-18.5 81h-8q-6 -27 -18.5 -81t-28 -117.5t-29.5 -123t-25 -98.5l-129 -475h-282z" />
<glyph unicode="x" horiz-adv-x="1146" d="M20 0l386 567l-367 543h293l241 -377l242 377h293l-371 -543l389 -567h-292l-261 403l-260 -403h-293z" />
<glyph unicode="y" horiz-adv-x="1120" d="M0 1110h281l221 -627q23 -59 37 -117.5t20 -115.5h8q8 53 24.5 113.5t37.5 119.5l213 627h278l-473 -1257q-63 -166 -172.5 -255.5t-269.5 -89.5q-51 0 -89 5.5t-65 11.5v205q23 -4 54.5 -8.5t66.5 -4.5q94 0 151.5 56.5t88.5 140.5l32 90z" />
<glyph unicode="z" horiz-adv-x="985" d="M66 0v158l544 755h-514v197h805v-174l-534 -737h551v-199h-852z" />
<glyph unicode="{" horiz-adv-x="796" d="M41 467v205q123 0 188.5 42t65.5 140v313q0 152 97 223.5t329 71.5v-196q-90 -2 -142.5 -36t-52.5 -124v-297q0 -197 -229 -234v-12q229 -35 229 -231v-299q0 -92 52.5 -125t142.5 -35v-197q-236 0 -331 72t-95 225v310q0 100 -65.5 142t-188.5 42z" />
<glyph unicode="|" horiz-adv-x="1128" d="M467 -475v2027h195v-2027h-195z" />
<glyph unicode="}" horiz-adv-x="796" d="M76 -127q88 2 141 36t53 124v299q0 195 230 231v12q-229 37 -230 232v299q0 92 -52 125t-142 35v196q236 0 331 -71.5t95 -225.5v-309q0 -100 65.5 -142t188.5 -42v-205q-123 -2 -188.5 -43t-65.5 -141v-312q0 -152 -97.5 -223.5t-328.5 -71.5v197z" />
<glyph unicode="~" d="M94 565v205q98 109 252 109q59 0 118.5 -13.5t156.5 -52.5q74 -33 125 -44t96 -11q59 0 121.5 34.5t111.5 86.5v-203q-100 -111 -252 -111q-57 0 -118.5 12.5t-155.5 53.5q-74 33 -125 44t-96 11q-57 0 -121 -35t-113 -86z" />
<glyph unicode="&#xa1;" horiz-adv-x="573" d="M129 961q0 84 46 120.5t110 36.5q66 0 111.5 -36.5t45.5 -120.5q0 -88 -46 -123t-111 -35q-63 0 -109.5 34.5t-46.5 123.5zM133 -371l51 1004h197l51 -1004h-299z" />
<glyph unicode="&#xa2;" d="M160 741q0 188 51 309t143 183.5t217 81.5v168h164v-160q88 -4 161 -23.5t126 -44.5l-76 -204q-66 27 -129 44t-123 17q-270 0 -270 -369q0 -184 68.5 -271t197.5 -87q94 0 162 19.5t141 52.5v-219q-117 -57 -260 -66v-192h-162v200q-193 29 -302 161t-109 400z" />
<glyph unicode="&#xa3;" d="M76 0v211q86 33 137 89t51 181v172h-184v187h184v235q0 141 56.5 231.5t153.5 133.5t220 43q111 0 206 -24.5t173 -59.5l-82 -197q-66 29 -137.5 49.5t-142.5 20.5q-84 0 -137.5 -47t-53.5 -158v-227h391v-187h-391v-170q0 -115 -47 -173t-100 -87h745v-223h-1042z" />
<glyph unicode="&#xa4;" d="M117 1063l129 127l129 -129q94 61 209 61q59 0 110 -16t99 -45l131 129l129 -125l-129 -133q27 -43 43 -97.5t16 -111.5q0 -117 -59 -211l125 -129l-125 -125l-131 127q-45 -29 -97.5 -44t-111.5 -15q-121 0 -209 59l-129 -125l-127 125l129 129q-62 96 -62 209 q0 57 17.5 109.5t44.5 97.5zM367 723q0 -90 63.5 -153.5t153.5 -63.5q92 0 156.5 63.5t64.5 153.5q0 92 -64.5 155.5t-156.5 63.5q-90 0 -153.5 -63.5t-63.5 -155.5z" />
<glyph unicode="&#xa5;" d="M14 1462h269l301 -645l303 645h266l-393 -755h217v-160h-270v-150h270v-159h-270v-238h-246v238h-271v159h271v150h-271v160h213z" />
<glyph unicode="&#xa6;" horiz-adv-x="1128" d="M467 326h195v-801h-195v801zM467 752v800h195v-800h-195z" />
<glyph unicode="&#xa7;" horiz-adv-x="1015" d="M113 59v187q74 -37 170 -65.5t180 -28.5q127 0 174 37.5t47 91.5q0 35 -16.5 61.5t-65.5 54t-147 66.5q-102 41 -176 85t-113 104.5t-39 152.5t43 153.5t100 96.5q-66 39 -103.5 97t-37.5 136q0 127 109.5 203t296.5 76q106 0 191 -21.5t167 -56.5l-74 -172 q-68 31 -138.5 54.5t-154.5 23.5q-98 0 -140 -26t-42 -77t53.5 -89t182.5 -87q150 -59 236.5 -136t86.5 -198q0 -102 -40 -164.5t-97 -99.5q66 -39 100.5 -92t34.5 -129q0 -145 -118.5 -229t-323.5 -84q-111 0 -195 19.5t-151 55.5zM324 825q0 -66 59 -116t197 -103l24 -10 q37 23 67.5 61.5t30.5 98.5q0 68 -54 119t-212 102q-45 -14 -78.5 -54.5t-33.5 -97.5z" />
<glyph unicode="&#xa8;" horiz-adv-x="1222" d="M289 1401q0 66 35.5 94.5t87.5 28.5q49 0 87 -29t38 -94q0 -61 -38 -91t-87 -30q-51 0 -87 30t-36 91zM686 1401q0 66 36 94.5t87 28.5q49 0 87 -29t38 -94q0 -61 -38 -91t-87 -30q-51 0 -87 30t-36 91z" />
<glyph unicode="&#xa9;" horiz-adv-x="1703" d="M100 731q0 160 56.5 296t158 238.5t238.5 160t299 57.5q156 0 292 -55.5t239.5 -157t162 -238.5t58.5 -301t-55.5 -301t-157 -238.5t-238.5 -156.5t-301 -55t-301 55t-238.5 156.5t-157 238.5t-55.5 301zM229 731q0 -178 80 -320.5t221.5 -225.5t321.5 -83 q129 0 240.5 46.5t196.5 131.5t133 199.5t48 251.5q0 129 -46 244t-129 202t-196.5 136t-246.5 49q-180 0 -320.5 -81t-221.5 -224.5t-81 -325.5zM471 731q0 135 49 240.5t142.5 165t228.5 59.5q133 0 252 -61l-60 -134q-102 53 -190 54q-121 0 -187.5 -87t-66.5 -237 q0 -158 58.5 -241.5t193.5 -83.5q47 0 105.5 13t109.5 34v-138q-49 -20 -100 -34.5t-123 -14.5q-207 0 -309.5 127t-102.5 338z" />
<glyph unicode="&#xaa;" horiz-adv-x="763" d="M53 979q0 115 88 165t252 58l107 4v27q0 55 -37 81.5t-98 26.5q-51 0 -104.5 -16t-108.5 -41l-58 121q59 31 134 52.5t163 21.5q141 0 211 -66.5t70 -189.5v-447h-121l-29 103q-41 -53 -102.5 -84t-134.5 -31q-104 0 -168 53t-64 162zM231 981q0 -45 26 -64.5t65 -19.5 q88 0 133 45t45 115v41l-99 -6q-102 -4 -136 -36t-34 -75z" />
<glyph unicode="&#xab;" horiz-adv-x="1177" d="M82 539v26l360 439l187 -101l-283 -350l283 -348l-187 -103zM551 539v26l360 439l185 -101l-281 -350l281 -348l-185 -103z" />
<glyph unicode="&#xac;" d="M94 627v190h981v-563h-190v373h-791z" />
<glyph unicode="&#xad;" horiz-adv-x="659" d="M70 440v217h520v-217h-520z" />
<glyph unicode="&#xae;" horiz-adv-x="1703" d="M100 731q0 160 56.5 296t158 238.5t238.5 160t299 57.5q156 0 292 -55.5t239.5 -157t162 -238.5t58.5 -301t-55.5 -301t-157 -238.5t-238.5 -156.5t-301 -55t-301 55t-238.5 156.5t-157 238.5t-55.5 301zM229 731q0 -178 80 -320.5t221.5 -225.5t321.5 -83 q129 0 240.5 46.5t196.5 131.5t133 199.5t48 251.5q0 129 -46 244t-129 202t-196.5 136t-246.5 49q-180 0 -320.5 -81t-221.5 -224.5t-81 -325.5zM565 283v901h269q168 0 245.5 -70t77.5 -201q0 -96 -49 -152t-111 -81l238 -397h-182l-199 348h-127v-348h-162zM727 764h102 q80 0 122 40t42 105q0 72 -37.5 105t-128.5 33h-100v-283z" />
<glyph unicode="&#xaf;" horiz-adv-x="1024" d="M-6 1556v177h1036v-177h-1036z" />
<glyph unicode="&#xb0;" horiz-adv-x="876" d="M92 1149q0 145 95.5 239.5t250.5 94.5q154 0 249 -93.5t95 -240.5t-95 -240.5t-249 -93.5t-250 93t-96 241zM268 1149q0 -76 46 -123t124 -47t124 47t46 123q0 78 -46 125t-124 47t-124 -47t-46 -125z" />
<glyph unicode="&#xb1;" d="M94 0v190h981v-190h-981zM94 668v190h393v404h193v-404h395v-190h-395v-400h-193v400h-393z" />
<glyph unicode="&#xb2;" horiz-adv-x="753" d="M51 1626q63 53 141 88t179 35q131 0 209.5 -64.5t78.5 -183.5q0 -96 -55 -173t-172 -185l-129 -119h371v-172h-621v145l228 224q70 68 107.5 111.5t52 78.5t14.5 74q0 47 -29 72.5t-78 25.5q-90 0 -192 -88z" />
<glyph unicode="&#xb3;" horiz-adv-x="753" d="M49 901v166q68 -37 135.5 -59.5t134.5 -22.5q168 0 168 125q0 53 -44 87t-144 34h-115v141h103q102 0 139 36t37 85t-32 75.5t-85 26.5t-99 -19.5t-104 -57.5l-90 124q61 45 135 75t174 30q133 0 212 -63.5t79 -165.5q0 -150 -164 -203v-10q94 -18 142.5 -73.5 t48.5 -131.5q0 -121 -87 -192.5t-271 -71.5q-147 0 -273 65z" />
<glyph unicode="&#xb4;" horiz-adv-x="677" d="M82 1241v27q33 39 74 91t79.5 108.5t65.5 101.5h295v-21q-35 -37 -96.5 -96t-129 -116.5t-116.5 -94.5h-172z" />
<glyph unicode="&#xb5;" horiz-adv-x="1323" d="M166 -492v1602h258v-674q0 -248 205 -248q156 0 213 98.5t57 280.5v543h258v-1110h-199l-36 150h-13q-45 -84 -113.5 -127t-166.5 -43q-70 0 -122 24.5t-87 65.5h-6q4 -33 7 -104.5t3 -137.5v-320h-258z" />
<glyph unicode="&#xb6;" horiz-adv-x="1341" d="M113 1042q0 195 56 307.5t158.5 159.5t235.5 47h588v-1816h-145v1649h-183v-1649h-145v819q-61 -18 -146 -18q-127 0 -221 47t-146 157.5t-52 296.5z" />
<glyph unicode="&#xb7;" horiz-adv-x="571" d="M129 721q0 86 46 122t110 36q63 0 110 -36t47 -122q0 -84 -47 -121t-110 -37t-109.5 37t-46.5 121z" />
<glyph unicode="&#xb8;" horiz-adv-x="436" d="M-12 -328q25 -6 62.5 -11t68.5 -5q45 0 72.5 15.5t27.5 56.5q0 86 -172 110l80 162h166l-37 -80q66 -18 117 -62t51 -120q0 -109 -70.5 -169.5t-236.5 -60.5q-76 0 -129 17v147z" />
<glyph unicode="&#xb9;" horiz-adv-x="753" d="M86 1511l289 218h174v-877h-203v491q0 45 3 105.5t5 91.5q-14 -16 -38.5 -38.5t-45.5 -39.5l-90 -67z" />
<glyph unicode="&#xba;" horiz-adv-x="784" d="M61 1122q0 172 89.5 264.5t244.5 92.5q145 0 237.5 -92.5t92.5 -264.5q0 -170 -91 -264t-243 -94q-145 0 -237.5 93t-92.5 265zM236 1122q0 -106 37.5 -160.5t119.5 -54.5t119 54.5t37 160.5t-37 159.5t-119 53.5t-119.5 -53.5t-37.5 -159.5z" />
<glyph unicode="&#xbb;" horiz-adv-x="1177" d="M82 205l280 348l-280 350l184 101l361 -439v-26l-361 -437zM549 205l282 348l-282 350l184 101l363 -439v-26l-363 -437z" />
<glyph unicode="&#xbc;" horiz-adv-x="1634" d="M55 1245l287 217h176v-876h-203v491q0 45 2 105.5t7 91.5q-16 -16 -40 -39t-44 -39l-90 -68zM297 0l842 1462h207l-842 -1462h-207zM895 168v137l393 578h203v-564h125v-151h-125v-168h-207v168h-389zM1065 319h219v175q0 41 1 92t5 100q-10 -27 -36.5 -77t-47.5 -81z " />
<glyph unicode="&#xbd;" horiz-adv-x="1710" d="M45 1245l289 217h174v-876h-203v491q0 45 3 105.5t5 91.5q-14 -16 -38.5 -39t-45.5 -39l-90 -68zM272 0l842 1462h209l-842 -1462h-209zM1008 774q63 53 140 88t179 35q131 0 210 -64.5t79 -183.5q0 -96 -55.5 -173t-171.5 -185l-129 -119h370v-172h-620v145l227 224 q70 68 107.5 111.5t52 78.5t14.5 74q0 47 -28.5 72.5t-77.5 25.5q-90 0 -193 -88z" />
<glyph unicode="&#xbe;" horiz-adv-x="1681" d="M68 635v166q68 -37 135 -59.5t135 -22.5q166 0 166 125q0 53 -43 87t-146 34h-112v141h100q104 0 141 36t37 85t-31.5 75.5t-84.5 26.5t-100.5 -19.5t-102.5 -58.5l-92 125q63 45 136 75t173 30q133 0 212 -63.5t79 -166.5q0 -150 -162 -202v-11q94 -18 142 -73.5 t48 -130.5q0 -121 -88 -193t-272 -72q-147 0 -270 66zM375 0l842 1462h206l-841 -1462h-207zM942 168v137l393 578h203v-564h125v-151h-125v-168h-207v168h-389zM1112 319h219v175q0 41 2 92t4 100q-10 -27 -36.5 -77t-47.5 -81z" />
<glyph unicode="&#xbf;" horiz-adv-x="944" d="M53 -32q0 88 27.5 150.5t82 115.5t130.5 113q63 49 96 83.5t45 68.5t12 83v51h219v-67q0 -106 -39.5 -178t-142.5 -152q-102 -78 -144 -129t-42 -127q0 -78 54 -119t155 -41q90 0 172 26.5t164 67.5l92 -192q-94 -51 -205 -83t-244 -32q-207 0 -319.5 99.5t-112.5 261.5z M391 959q0 84 46 121t110 37q66 0 111.5 -37t45.5 -121q0 -86 -46 -122t-111 -36q-63 0 -109.5 36t-46.5 122z" />
<glyph unicode="&#xc0;" horiz-adv-x="1374" d="M0 0l537 1468h299l536 -1468h-278l-133 387h-551l-131 -387h-279zM340 1900v21h295q27 -45 65.5 -101.5t80.5 -108.5t73 -91v-27h-170q-51 37 -119.5 94.5t-130 116.5t-94.5 96zM481 612h412l-127 377q-8 27 -24.5 77t-31 102.5t-24.5 86.5q-10 -43 -25.5 -96t-29 -100 t-21.5 -70z" />
<glyph unicode="&#xc1;" horiz-adv-x="1374" d="M0 0l537 1468h299l536 -1468h-278l-133 387h-551l-131 -387h-279zM481 612h412l-127 377q-8 27 -24.5 77t-31 102.5t-24.5 86.5q-10 -43 -25.5 -96t-29 -100t-21.5 -70zM524 1593v27q33 39 74 91t79.5 108.5t65.5 101.5h295v-21q-35 -37 -96.5 -96t-129 -116.5 t-116.5 -94.5h-172z" />
<glyph unicode="&#xc2;" horiz-adv-x="1374" d="M0 0l537 1468h299l536 -1468h-278l-133 387h-551l-131 -387h-279zM287 1593v25q37 39 86 92t94 109.5t74 101.5h293q27 -45 73 -101.5t96 -110.5t87 -91v-25h-174q-53 33 -116 79t-116 101q-53 -55 -112.5 -101t-112.5 -79h-172zM481 612h412l-127 377q-8 27 -24.5 77 t-31 102.5t-24.5 86.5q-10 -43 -25.5 -96t-29 -100t-21.5 -70z" />
<glyph unicode="&#xc3;" horiz-adv-x="1374" d="M0 0l537 1468h299l536 -1468h-278l-133 387h-551l-131 -387h-279zM285 1591q12 145 81.5 219t172.5 74q57 0 110.5 -27.5t102.5 -55.5t96 -28q80 0 105 113h133q-12 -145 -83 -219t-171 -74q-55 0 -108.5 27.5t-103.5 55.5t-98 28q-80 0 -104 -113h-133zM481 612h412 l-127 377q-8 27 -24.5 77t-31 102.5t-24.5 86.5q-10 -43 -25.5 -96t-29 -100t-21.5 -70z" />
<glyph unicode="&#xc4;" horiz-adv-x="1374" d="M0 0l537 1468h299l536 -1468h-278l-133 387h-551l-131 -387h-279zM363 1753q0 66 35.5 94.5t87.5 28.5q49 0 87 -29t38 -94q0 -61 -38 -91t-87 -30q-51 0 -87 30t-36 91zM481 612h412l-127 377q-8 27 -24.5 77t-31 102.5t-24.5 86.5q-10 -43 -25.5 -96t-29 -100 t-21.5 -70zM760 1753q0 66 36 94.5t87 28.5q49 0 87 -29t38 -94q0 -61 -38 -91t-87 -30q-51 0 -87 30t-36 91z" />
<glyph unicode="&#xc5;" horiz-adv-x="1374" d="M0 0l537 1468h299l536 -1468h-278l-133 387h-551l-131 -387h-279zM444 1572q0 106 65.5 167t171.5 61q102 0 174 -60.5t72 -164.5q0 -111 -71 -172.5t-175 -61.5q-106 0 -171.5 61.5t-65.5 169.5zM481 612h412l-127 377q-8 27 -24.5 77t-31 102.5t-24.5 86.5 q-10 -43 -25.5 -96t-29 -100t-21.5 -70zM579 1572q0 -104 102 -104q45 0 75 27.5t30 76.5q0 47 -29.5 75t-75.5 28q-43 0 -72.5 -27.5t-29.5 -75.5z" />
<glyph unicode="&#xc6;" horiz-adv-x="1894" d="M0 0l670 1462h1104v-219h-570v-373h531v-219h-531v-430h570v-221h-832v387h-500l-174 -387h-268zM541 612h401v623h-123z" />
<glyph unicode="&#xc7;" horiz-adv-x="1300" d="M121 731q0 221 80 390t234.5 265.5t377.5 96.5q111 0 218.5 -24.5t201.5 -72.5l-90 -215q-78 35 -161 63t-169 28q-199 0 -309.5 -142.5t-110.5 -390.5q0 -250 102.5 -389t315.5 -139q92 0 181 19.5t184 51.5v-223q-90 -37 -181.5 -53t-210.5 -16q-225 0 -372.5 93 t-219 262t-71.5 396zM549 -328q25 -6 62.5 -11t68.5 -5q45 0 72.5 15.5t27.5 56.5q0 86 -172 110l80 162h166l-37 -80q66 -18 117 -62t51 -120q0 -109 -70.5 -169.5t-236.5 -60.5q-76 0 -129 17v147z" />
<glyph unicode="&#xc8;" horiz-adv-x="1142" d="M190 0v1462h832v-219h-569v-373h532v-219h-532v-430h569v-221h-832zM275 1900v21h295q27 -45 65.5 -101.5t80.5 -108.5t73 -91v-27h-170q-51 37 -119.5 94.5t-130 116.5t-94.5 96z" />
<glyph unicode="&#xc9;" horiz-adv-x="1142" d="M190 0v1462h832v-219h-569v-373h532v-219h-532v-430h569v-221h-832zM459 1593v27q33 39 74 91t79.5 108.5t65.5 101.5h295v-21q-35 -37 -96.5 -96t-129 -116.5t-116.5 -94.5h-172z" />
<glyph unicode="&#xca;" horiz-adv-x="1142" d="M190 0v1462h832v-219h-569v-373h532v-219h-532v-430h569v-221h-832zM221 1593v25q37 39 86 92t94 109.5t74 101.5h293q27 -45 73 -101.5t96 -110.5t87 -91v-25h-174q-53 33 -116 79t-116 101q-53 -55 -112.5 -101t-112.5 -79h-172z" />
<glyph unicode="&#xcb;" horiz-adv-x="1142" d="M190 0v1462h832v-219h-569v-373h532v-219h-532v-430h569v-221h-832zM297 1753q0 66 35.5 94.5t87.5 28.5q49 0 87 -29t38 -94q0 -61 -38 -91t-87 -30q-51 0 -87 30t-36 91zM694 1753q0 66 36 94.5t87 28.5q49 0 87 -29t38 -94q0 -61 -38 -91t-87 -30q-51 0 -87 30t-36 91 z" />
<glyph unicode="&#xcc;" horiz-adv-x="757" d="M35 1900v21h295q27 -45 65.5 -101.5t80.5 -108.5t73 -91v-27h-170q-51 37 -119.5 94.5t-130 116.5t-94.5 96zM72 0v150l176 65v1030l-176 68v149h614v-149l-176 -68v-1030l176 -65v-150h-614z" />
<glyph unicode="&#xcd;" horiz-adv-x="757" d="M72 0v150l176 65v1030l-176 68v149h614v-149l-176 -68v-1030l176 -65v-150h-614zM219 1593v27q33 39 74 91t79.5 108.5t65.5 101.5h295v-21q-35 -37 -96.5 -96t-129 -116.5t-116.5 -94.5h-172z" />
<glyph unicode="&#xce;" horiz-adv-x="757" d="M-18 1593v25q37 39 86 92t94 109.5t74 101.5h293q27 -45 73 -101.5t96 -110.5t87 -91v-25h-174q-53 33 -116 79t-116 101q-53 -55 -112.5 -101t-112.5 -79h-172zM72 0v150l176 65v1030l-176 68v149h614v-149l-176 -68v-1030l176 -65v-150h-614z" />
<glyph unicode="&#xcf;" horiz-adv-x="757" d="M58 1753q0 66 35.5 94.5t87.5 28.5q49 0 87 -29t38 -94q0 -61 -38 -91t-87 -30q-51 0 -87 30t-36 91zM72 0v150l176 65v1030l-176 68v149h614v-149l-176 -68v-1030l176 -65v-150h-614zM455 1753q0 66 36 94.5t87 28.5q49 0 87 -29t38 -94q0 -61 -38 -91t-87 -30 q-51 0 -87 30t-36 91z" />
<glyph unicode="&#xd0;" horiz-adv-x="1507" d="M53 614v217h142v631h450q225 0 392 -82t258 -241.5t91 -393.5q0 -371 -207.5 -558t-578.5 -187h-405v614h-142zM457 219h151q504 0 504 518q0 262 -122 385t-345 123h-188v-414h286v-217h-286v-395z" />
<glyph unicode="&#xd1;" horiz-adv-x="1624" d="M190 0v1462h324l690 -1138h6q-2 82 -7 188t-7 207v743h238v-1462h-326l-692 1147h-8q4 -92 9 -197.5t9 -212.5v-737h-236zM412 1591q12 145 81.5 219t172.5 74q57 0 110.5 -27.5t102.5 -55.5t96 -28q80 0 105 113h133q-12 -145 -83 -219t-171 -74q-55 0 -108.5 27.5 t-103.5 55.5t-98 28q-80 0 -104 -113h-133z" />
<glyph unicode="&#xd2;" horiz-adv-x="1617" d="M121 735q0 225 74.5 394t227 262.5t388.5 93.5q231 0 384 -93.5t227.5 -262.5t74.5 -396t-74.5 -396t-228.5 -263t-385 -94q-236 0 -387.5 94t-226 264t-74.5 397zM397 733q0 -248 99.5 -389t312.5 -141q219 0 315.5 141t96.5 389t-96.5 389.5t-313.5 141.5 q-215 0 -314.5 -141.5t-99.5 -389.5zM465 1900v21h295q27 -45 65.5 -101.5t80.5 -108.5t73 -91v-27h-170q-51 37 -119.5 94.5t-130 116.5t-94.5 96z" />
<glyph unicode="&#xd3;" horiz-adv-x="1617" d="M121 735q0 225 74.5 394t227 262.5t388.5 93.5q231 0 384 -93.5t227.5 -262.5t74.5 -396t-74.5 -396t-228.5 -263t-385 -94q-236 0 -387.5 94t-226 264t-74.5 397zM397 733q0 -248 99.5 -389t312.5 -141q219 0 315.5 141t96.5 389t-96.5 389.5t-313.5 141.5 q-215 0 -314.5 -141.5t-99.5 -389.5zM649 1593v27q33 39 74 91t79.5 108.5t65.5 101.5h295v-21q-35 -37 -96.5 -96t-129 -116.5t-116.5 -94.5h-172z" />
<glyph unicode="&#xd4;" horiz-adv-x="1617" d="M121 735q0 225 74.5 394t227 262.5t388.5 93.5q231 0 384 -93.5t227.5 -262.5t74.5 -396t-74.5 -396t-228.5 -263t-385 -94q-236 0 -387.5 94t-226 264t-74.5 397zM397 733q0 -248 99.5 -389t312.5 -141q219 0 315.5 141t96.5 389t-96.5 389.5t-313.5 141.5 q-215 0 -314.5 -141.5t-99.5 -389.5zM412 1593v25q37 39 86 92t94 109.5t74 101.5h293q27 -45 73 -101.5t96 -110.5t87 -91v-25h-174q-53 33 -116 79t-116 101q-53 -55 -112.5 -101t-112.5 -79h-172z" />
<glyph unicode="&#xd5;" horiz-adv-x="1617" d="M121 735q0 225 74.5 394t227 262.5t388.5 93.5q231 0 384 -93.5t227.5 -262.5t74.5 -396t-74.5 -396t-228.5 -263t-385 -94q-236 0 -387.5 94t-226 264t-74.5 397zM397 733q0 -248 99.5 -389t312.5 -141q219 0 315.5 141t96.5 389t-96.5 389.5t-313.5 141.5 q-215 0 -314.5 -141.5t-99.5 -389.5zM410 1591q12 145 81.5 219t172.5 74q57 0 110.5 -27.5t102.5 -55.5t96 -28q80 0 105 113h133q-12 -145 -83 -219t-171 -74q-55 0 -108.5 27.5t-103.5 55.5t-98 28q-80 0 -104 -113h-133z" />
<glyph unicode="&#xd6;" horiz-adv-x="1617" d="M121 735q0 225 74.5 394t227 262.5t388.5 93.5q231 0 384 -93.5t227.5 -262.5t74.5 -396t-74.5 -396t-228.5 -263t-385 -94q-236 0 -387.5 94t-226 264t-74.5 397zM397 733q0 -248 99.5 -389t312.5 -141q219 0 315.5 141t96.5 389t-96.5 389.5t-313.5 141.5 q-215 0 -314.5 -141.5t-99.5 -389.5zM488 1753q0 66 35.5 94.5t87.5 28.5q49 0 87 -29t38 -94q0 -61 -38 -91t-87 -30q-51 0 -87 30t-36 91zM885 1753q0 66 36 94.5t87 28.5q49 0 87 -29t38 -94q0 -61 -38 -91t-87 -30q-51 0 -87 30t-36 91z" />
<glyph unicode="&#xd7;" d="M129 1040l135 138l318 -320l323 320l133 -134l-321 -321l319 -320l-133 -135l-321 320l-318 -318l-133 133l315 320z" />
<glyph unicode="&#xd8;" horiz-adv-x="1617" d="M121 735q0 225 74.5 394t227 262.5t388.5 93.5q102 0 191.5 -20.5t160.5 -57.5l88 129l148 -96l-94 -137q96 -98 144 -244t48 -326q0 -227 -74.5 -396t-228.5 -263t-385 -94q-207 0 -352 77l-92 -137l-148 98l96 142q-98 100 -145 246.5t-47 328.5zM397 733 q0 -104 17.5 -191t54.5 -153l561 819q-45 27 -99 41.5t-120 14.5q-215 0 -314.5 -141.5t-99.5 -389.5zM592 256q88 -53 217 -53q219 0 315.5 141t96.5 389q0 213 -70 340z" />
<glyph unicode="&#xd9;" horiz-adv-x="1529" d="M178 520v942h262v-915q0 -180 81 -262t245 -82q170 0 247 89t77 257v913h260v-946q0 -152 -64.5 -273.5t-196 -192t-331.5 -70.5q-285 0 -432.5 148t-147.5 392zM420 1900v21h295q27 -45 65.5 -101.5t80.5 -108.5t73 -91v-27h-170q-51 37 -119.5 94.5t-130 116.5 t-94.5 96z" />
<glyph unicode="&#xda;" horiz-adv-x="1529" d="M178 520v942h262v-915q0 -180 81 -262t245 -82q170 0 247 89t77 257v913h260v-946q0 -152 -64.5 -273.5t-196 -192t-331.5 -70.5q-285 0 -432.5 148t-147.5 392zM604 1593v27q33 39 74 91t79.5 108.5t65.5 101.5h295v-21q-35 -37 -96.5 -96t-129 -116.5t-116.5 -94.5 h-172z" />
<glyph unicode="&#xdb;" horiz-adv-x="1529" d="M178 520v942h262v-915q0 -180 81 -262t245 -82q170 0 247 89t77 257v913h260v-946q0 -152 -64.5 -273.5t-196 -192t-331.5 -70.5q-285 0 -432.5 148t-147.5 392zM367 1593v25q37 39 86 92t94 109.5t74 101.5h293q27 -45 73 -101.5t96 -110.5t87 -91v-25h-174 q-53 33 -116 79t-116 101q-53 -55 -112.5 -101t-112.5 -79h-172z" />
<glyph unicode="&#xdc;" horiz-adv-x="1529" d="M178 520v942h262v-915q0 -180 81 -262t245 -82q170 0 247 89t77 257v913h260v-946q0 -152 -64.5 -273.5t-196 -192t-331.5 -70.5q-285 0 -432.5 148t-147.5 392zM443 1753q0 66 35.5 94.5t87.5 28.5q49 0 87 -29t38 -94q0 -61 -38 -91t-87 -30q-51 0 -87 30t-36 91z M840 1753q0 66 36 94.5t87 28.5q49 0 87 -29t38 -94q0 -61 -38 -91t-87 -30q-51 0 -87 30t-36 91z" />
<glyph unicode="&#xdd;" horiz-adv-x="1232" d="M0 1462h285l331 -645l334 645h283l-485 -893v-569h-263v559zM455 1593v27q33 39 74 91t79.5 108.5t65.5 101.5h295v-21q-35 -37 -96.5 -96t-129 -116.5t-116.5 -94.5h-172z" />
<glyph unicode="&#xde;" horiz-adv-x="1267" d="M190 0v1462h263v-239h184q281 0 407.5 -121t126.5 -328q0 -123 -52 -230.5t-174 -174t-335 -66.5h-157v-303h-263zM453 516h116q172 0 254 59.5t82 194.5q0 121 -73.5 179.5t-233.5 58.5h-145v-492z" />
<glyph unicode="&#xdf;" horiz-adv-x="1394" d="M166 0v1161q0 141 67.5 231.5t183 132.5t263.5 42q145 0 259 -36t178.5 -108t64.5 -174q0 -74 -29 -128t-72 -94t-86 -71.5t-71.5 -59.5t-28.5 -58q0 -39 44 -73t159 -110q102 -68 159.5 -140.5t57.5 -192.5q0 -172 -112.5 -257t-317.5 -85q-190 0 -301 65v211 q49 -33 130 -59.5t154 -26.5q184 0 185 143q0 41 -15.5 72t-55.5 64.5t-118 78.5q-127 76 -175 135.5t-48 141.5q0 63 27.5 108t69.5 79t84 64.5t70 67.5t28 88q0 72 -69 111t-171 39q-106 0 -181 -48t-75 -161v-1153h-258z" />
<glyph unicode="&#xe0;" horiz-adv-x="1204" d="M90 324q0 172 126 258t382 96l193 6v55q0 106 -51.5 151.5t-143.5 45.5q-84 0 -161 -23.5t-152 -58.5l-82 180q82 43 187 69.5t220 26.5q215 0 327 -94t112 -291v-745h-183l-51 154h-8q-72 -90 -152 -132t-217 -42q-150 0 -248 83.5t-98 260.5zM258 1548v21h295 q27 -45 65.5 -101.5t80.5 -108.5t73 -91v-27h-170q-51 37 -119.5 94.5t-130 116.5t-94.5 96zM354 322q0 -80 46 -114t122 -34q113 0 191 64.5t78 191.5v94l-136 -4q-170 -6 -235.5 -58t-65.5 -140z" />
<glyph unicode="&#xe1;" horiz-adv-x="1204" d="M90 324q0 172 126 258t382 96l193 6v55q0 106 -51.5 151.5t-143.5 45.5q-84 0 -161 -23.5t-152 -58.5l-82 180q82 43 187 69.5t220 26.5q215 0 327 -94t112 -291v-745h-183l-51 154h-8q-72 -90 -152 -132t-217 -42q-150 0 -248 83.5t-98 260.5zM354 322q0 -80 46 -114 t122 -34q113 0 191 64.5t78 191.5v94l-136 -4q-170 -6 -235.5 -58t-65.5 -140zM440 1241v27q33 39 74 91t79.5 108.5t65.5 101.5h295v-21q-35 -37 -96.5 -96t-129 -116.5t-116.5 -94.5h-172z" />
<glyph unicode="&#xe2;" horiz-adv-x="1204" d="M90 324q0 172 126 258t382 96l193 6v55q0 106 -51.5 151.5t-143.5 45.5q-84 0 -161 -23.5t-152 -58.5l-82 180q82 43 187 69.5t220 26.5q215 0 327 -94t112 -291v-745h-183l-51 154h-8q-72 -90 -152 -132t-217 -42q-150 0 -248 83.5t-98 260.5zM205 1241v25q37 39 86 92 t94 109.5t74 101.5h293q27 -45 73 -101.5t96 -110.5t87 -91v-25h-174q-53 33 -116 79t-116 101q-53 -55 -112.5 -101t-112.5 -79h-172zM354 322q0 -80 46 -114t122 -34q113 0 191 64.5t78 191.5v94l-136 -4q-170 -6 -235.5 -58t-65.5 -140z" />
<glyph unicode="&#xe3;" horiz-adv-x="1204" d="M90 324q0 172 126 258t382 96l193 6v55q0 106 -51.5 151.5t-143.5 45.5q-84 0 -161 -23.5t-152 -58.5l-82 180q82 43 187 69.5t220 26.5q215 0 327 -94t112 -291v-745h-183l-51 154h-8q-72 -90 -152 -132t-217 -42q-150 0 -248 83.5t-98 260.5zM201 1239q12 145 81.5 219 t172.5 74q57 0 110.5 -27.5t102.5 -55.5t96 -28q80 0 105 113h133q-12 -145 -83 -219t-171 -74q-55 0 -108.5 27.5t-103.5 55.5t-98 28q-80 0 -104 -113h-133zM354 322q0 -80 46 -114t122 -34q113 0 191 64.5t78 191.5v94l-136 -4q-170 -6 -235.5 -58t-65.5 -140z" />
<glyph unicode="&#xe4;" horiz-adv-x="1204" d="M90 324q0 172 126 258t382 96l193 6v55q0 106 -51.5 151.5t-143.5 45.5q-84 0 -161 -23.5t-152 -58.5l-82 180q82 43 187 69.5t220 26.5q215 0 327 -94t112 -291v-745h-183l-51 154h-8q-72 -90 -152 -132t-217 -42q-150 0 -248 83.5t-98 260.5zM279 1401q0 66 35.5 94.5 t87.5 28.5q49 0 87 -29t38 -94q0 -61 -38 -91t-87 -30q-51 0 -87 30t-36 91zM354 322q0 -80 46 -114t122 -34q113 0 191 64.5t78 191.5v94l-136 -4q-170 -6 -235.5 -58t-65.5 -140zM676 1401q0 66 36 94.5t87 28.5q49 0 87 -29t38 -94q0 -61 -38 -91t-87 -30q-51 0 -87 30 t-36 91z" />
<glyph unicode="&#xe5;" horiz-adv-x="1204" d="M90 324q0 172 126 258t382 96l193 6v55q0 106 -51.5 151.5t-143.5 45.5q-84 0 -161 -23.5t-152 -58.5l-82 180q82 43 187 69.5t220 26.5q215 0 327 -94t112 -291v-745h-183l-51 154h-8q-72 -90 -152 -132t-217 -42q-150 0 -248 83.5t-98 260.5zM354 322q0 -80 46 -114 t122 -34q113 0 191 64.5t78 191.5v94l-136 -4q-170 -6 -235.5 -58t-65.5 -140zM367 1470q0 106 65.5 167t171.5 61q102 0 174 -60.5t72 -164.5q0 -111 -71 -172.5t-175 -61.5q-106 0 -171.5 61.5t-65.5 169.5zM502 1470q0 -104 102 -104q45 0 75 27.5t30 76.5q0 47 -29.5 75 t-75.5 28q-43 0 -72.5 -27.5t-29.5 -75.5z" />
<glyph unicode="&#xe6;" horiz-adv-x="1837" d="M90 324q0 172 122 258t368 96l186 6v78q0 94 -51 134t-137 40q-82 0 -159 -22.5t-149 -57.5l-82 178q82 43 188.5 69.5t217.5 26.5q119 0 203 -34.5t137 -112.5q61 72 147 109.5t203 37.5q207 0 333 -133t126 -368v-133h-715q4 -156 80 -237t213 -81q100 0 188 21.5 t177 62.5v-207q-84 -39 -170 -57t-207 -18q-137 0 -248 54t-180 163q-55 -72 -113.5 -120t-136.5 -72.5t-189 -24.5q-98 0 -178 36.5t-127 112.5t-47 195zM354 322q0 -80 44 -114t116 -34q106 0 179 64.5t73 191.5v94l-129 -4q-160 -6 -221.5 -58t-61.5 -140zM1032 676h461 q-2 117 -55.5 190.5t-159.5 73.5t-171 -66.5t-75 -197.5z" />
<glyph unicode="&#xe7;" horiz-adv-x="1026" d="M100 549q0 205 69 333t189.5 188t276.5 60q102 0 185 -20t141 -49l-76 -203q-66 25 -129.5 42.5t-120.5 17.5q-270 0 -270 -367q0 -178 68.5 -268t197.5 -90q92 0 164.5 22.5t136.5 60.5v-223q-63 -39 -137.5 -56t-180.5 -17q-238 0 -376 137t-138 432zM379 -328 q25 -6 62.5 -11t68.5 -5q45 0 72.5 15.5t27.5 56.5q0 86 -172 110l80 162h166l-37 -80q66 -18 117 -62t51 -120q0 -109 -70.5 -169.5t-236.5 -60.5q-76 0 -129 17v147z" />
<glyph unicode="&#xe8;" horiz-adv-x="1189" d="M100 547q0 285 140.5 434t371.5 149q223 0 353.5 -133t130.5 -370v-131h-734q4 -152 84 -235t222 -83q106 0 192 21.5t176 62.5v-207q-82 -39 -170 -57t-211 -18q-164 0 -288.5 62t-195.5 188t-71 317zM252 1548v21h295q27 -45 65.5 -101.5t80.5 -108.5t73 -91v-27h-170 q-51 37 -119.5 94.5t-130 116.5t-94.5 96zM369 676h477q-2 115 -58.5 189.5t-175.5 74.5q-104 0 -168.5 -66.5t-74.5 -197.5z" />
<glyph unicode="&#xe9;" horiz-adv-x="1189" d="M100 547q0 285 140.5 434t371.5 149q223 0 353.5 -133t130.5 -370v-131h-734q4 -152 84 -235t222 -83q106 0 192 21.5t176 62.5v-207q-82 -39 -170 -57t-211 -18q-164 0 -288.5 62t-195.5 188t-71 317zM369 676h477q-2 115 -58.5 189.5t-175.5 74.5q-104 0 -168.5 -66.5 t-74.5 -197.5zM436 1241v27q33 39 74 91t79.5 108.5t65.5 101.5h295v-21q-35 -37 -96.5 -96t-129 -116.5t-116.5 -94.5h-172z" />
<glyph unicode="&#xea;" horiz-adv-x="1189" d="M100 547q0 285 140.5 434t371.5 149q223 0 353.5 -133t130.5 -370v-131h-734q4 -152 84 -235t222 -83q106 0 192 21.5t176 62.5v-207q-82 -39 -170 -57t-211 -18q-164 0 -288.5 62t-195.5 188t-71 317zM199 1241v25q37 39 86 92t94 109.5t74 101.5h293q27 -45 73 -101.5 t96 -110.5t87 -91v-25h-174q-53 33 -116 79t-116 101q-53 -55 -112.5 -101t-112.5 -79h-172zM369 676h477q-2 115 -58.5 189.5t-175.5 74.5q-104 0 -168.5 -66.5t-74.5 -197.5z" />
<glyph unicode="&#xeb;" horiz-adv-x="1189" d="M100 547q0 285 140.5 434t371.5 149q223 0 353.5 -133t130.5 -370v-131h-734q4 -152 84 -235t222 -83q106 0 192 21.5t176 62.5v-207q-82 -39 -170 -57t-211 -18q-164 0 -288.5 62t-195.5 188t-71 317zM275 1401q0 66 35.5 94.5t87.5 28.5q49 0 87 -29t38 -94 q0 -61 -38 -91t-87 -30q-51 0 -87 30t-36 91zM369 676h477q-2 115 -58.5 189.5t-175.5 74.5q-104 0 -168.5 -66.5t-74.5 -197.5zM672 1401q0 66 36 94.5t87 28.5q49 0 87 -29t38 -94q0 -61 -38 -91t-87 -30q-51 0 -87 30t-36 91z" />
<glyph unicode="&#xec;" horiz-adv-x="587" d="M-49 1548v21h295q27 -45 65.5 -101.5t80.5 -108.5t73 -91v-27h-170q-51 37 -119.5 94.5t-130 116.5t-94.5 96zM166 0v1110h258v-1110h-258z" />
<glyph unicode="&#xed;" horiz-adv-x="587" d="M133 1241v27q33 39 74 91t79.5 108.5t65.5 101.5h295v-21q-35 -37 -96.5 -96t-129 -116.5t-116.5 -94.5h-172zM166 0v1110h258v-1110h-258z" />
<glyph unicode="&#xee;" horiz-adv-x="587" d="M-102 1241v25q37 39 86 92t94 109.5t74 101.5h293q27 -45 73 -101.5t96 -110.5t87 -91v-25h-174q-53 33 -116 79t-116 101q-53 -55 -112.5 -101t-112.5 -79h-172zM166 0v1110h258v-1110h-258z" />
<glyph unicode="&#xef;" horiz-adv-x="587" d="M-28 1401q0 66 35.5 94.5t87.5 28.5q49 0 87 -29t38 -94q0 -61 -38 -91t-87 -30q-51 0 -87 30t-36 91zM166 0v1110h258v-1110h-258zM369 1401q0 66 36 94.5t87 28.5q49 0 87 -29t38 -94q0 -61 -38 -91t-87 -30q-51 0 -87 30t-36 91z" />
<glyph unicode="&#xf0;" horiz-adv-x="1257" d="M100 485q0 158 60.5 269.5t169 171t252.5 59.5q211 0 290 -106l9 4q-33 96 -88.5 174t-126.5 145l-244 -145l-92 139l196 117q-39 25 -79.5 49t-84.5 49l91 156q70 -33 134 -69t124 -75l229 138l92 -138l-182 -108q145 -133 226 -316.5t81 -429.5q0 -287 -143.5 -438 t-388.5 -151q-154 0 -271.5 60t-185.5 173t-68 272zM362 481q0 -135 63.5 -220t203.5 -85q141 0 203.5 88t62.5 262q0 106 -64.5 185.5t-201.5 79.5q-141 0 -204 -79t-63 -231z" />
<glyph unicode="&#xf1;" horiz-adv-x="1314" d="M166 0v1110h199l36 -145h15q53 86 146.5 125.5t197.5 39.5q186 0 291.5 -96t105.5 -311v-723h-258v672q0 125 -49 187.5t-156 62.5q-156 0 -213 -98.5t-57 -280.5v-543h-258zM258 1239q12 145 81.5 219t172.5 74q57 0 110.5 -27.5t102.5 -55.5t96 -28q80 0 105 113h133 q-12 -145 -83 -219t-171 -74q-55 0 -108.5 27.5t-103.5 55.5t-98 28q-80 0 -104 -113h-133z" />
<glyph unicode="&#xf2;" horiz-adv-x="1257" d="M100 557q0 276 142.5 424.5t388.5 148.5q154 0 272.5 -66.5t186 -194.5t67.5 -312q0 -276 -143.5 -426.5t-388.5 -150.5q-152 0 -270.5 67.5t-186.5 196.5t-68 313zM285 1548v21h295q27 -45 65.5 -101.5t80.5 -108.5t73 -91v-27h-170q-51 37 -119.5 94.5t-130 116.5 t-94.5 96zM365 557q0 -176 62 -272.5t202 -96.5q137 0 200.5 96.5t63.5 272.5t-63.5 270.5t-202.5 94.5t-200.5 -94.5t-61.5 -270.5z" />
<glyph unicode="&#xf3;" horiz-adv-x="1257" d="M100 557q0 276 142.5 424.5t388.5 148.5q154 0 272.5 -66.5t186 -194.5t67.5 -312q0 -276 -143.5 -426.5t-388.5 -150.5q-152 0 -270.5 67.5t-186.5 196.5t-68 313zM365 557q0 -176 62 -272.5t202 -96.5q137 0 200.5 96.5t63.5 272.5t-63.5 270.5t-202.5 94.5 t-200.5 -94.5t-61.5 -270.5zM469 1241v27q33 39 74 91t79.5 108.5t65.5 101.5h295v-21q-35 -37 -96.5 -96t-129 -116.5t-116.5 -94.5h-172z" />
<glyph unicode="&#xf4;" horiz-adv-x="1257" d="M100 557q0 276 142.5 424.5t388.5 148.5q154 0 272.5 -66.5t186 -194.5t67.5 -312q0 -276 -143.5 -426.5t-388.5 -150.5q-152 0 -270.5 67.5t-186.5 196.5t-68 313zM232 1241v25q37 39 86 92t94 109.5t74 101.5h293q27 -45 73 -101.5t96 -110.5t87 -91v-25h-174 q-53 33 -116 79t-116 101q-53 -55 -112.5 -101t-112.5 -79h-172zM365 557q0 -176 62 -272.5t202 -96.5q137 0 200.5 96.5t63.5 272.5t-63.5 270.5t-202.5 94.5t-200.5 -94.5t-61.5 -270.5z" />
<glyph unicode="&#xf5;" horiz-adv-x="1257" d="M100 557q0 276 142.5 424.5t388.5 148.5q154 0 272.5 -66.5t186 -194.5t67.5 -312q0 -276 -143.5 -426.5t-388.5 -150.5q-152 0 -270.5 67.5t-186.5 196.5t-68 313zM229 1239q12 145 81.5 219t172.5 74q57 0 110.5 -27.5t102.5 -55.5t96 -28q80 0 105 113h133 q-12 -145 -83 -219t-171 -74q-55 0 -108.5 27.5t-103.5 55.5t-98 28q-80 0 -104 -113h-133zM365 557q0 -176 62 -272.5t202 -96.5q137 0 200.5 96.5t63.5 272.5t-63.5 270.5t-202.5 94.5t-200.5 -94.5t-61.5 -270.5z" />
<glyph unicode="&#xf6;" horiz-adv-x="1257" d="M100 557q0 276 142.5 424.5t388.5 148.5q154 0 272.5 -66.5t186 -194.5t67.5 -312q0 -276 -143.5 -426.5t-388.5 -150.5q-152 0 -270.5 67.5t-186.5 196.5t-68 313zM307 1401q0 66 35.5 94.5t87.5 28.5q49 0 87 -29t38 -94q0 -61 -38 -91t-87 -30q-51 0 -87 30t-36 91z M365 557q0 -176 62 -272.5t202 -96.5q137 0 200.5 96.5t63.5 272.5t-63.5 270.5t-202.5 94.5t-200.5 -94.5t-61.5 -270.5zM704 1401q0 66 36 94.5t87 28.5q49 0 87 -29t38 -94q0 -61 -38 -91t-87 -30q-51 0 -87 30t-36 91z" />
<glyph unicode="&#xf7;" d="M94 627v190h981v-190h-981zM455 373q0 78 37.5 109.5t91.5 31.5q51 0 90 -31.5t39 -109.5q0 -76 -39 -109t-90 -33q-53 0 -91 33t-38 109zM455 1071q0 78 37.5 109.5t91.5 31.5q51 0 90 -31.5t39 -109.5q0 -76 -39 -108.5t-90 -32.5q-53 0 -91 32.5t-38 108.5z" />
<glyph unicode="&#xf8;" horiz-adv-x="1257" d="M100 557q0 276 142.5 424.5t388.5 148.5q143 0 256 -59l65 94l140 -96l-70 -102q63 -72 99 -175.5t36 -234.5q0 -276 -143.5 -426.5t-388.5 -150.5q-133 0 -244 53l-74 -105l-141 95l78 110q-70 76 -107 180.5t-37 243.5zM365 557q0 -59 6 -110.5t22 -92.5l369 533 q-53 35 -135 35q-139 0 -200.5 -94.5t-61.5 -270.5zM506 215q53 -27 123 -27q137 0 200.5 96.5t63.5 272.5q0 109 -25 182z" />
<glyph unicode="&#xf9;" horiz-adv-x="1314" d="M158 385v725h258v-674q0 -125 49 -186.5t156 -61.5q156 0 214 98.5t58 280.5v543h258v-1110h-203l-35 143h-12q-53 -86 -147.5 -124.5t-198.5 -38.5q-186 0 -291.5 96t-105.5 309zM313 1548v21h295q27 -45 65.5 -101.5t80.5 -108.5t73 -91v-27h-170q-51 37 -119.5 94.5 t-130 116.5t-94.5 96z" />
<glyph unicode="&#xfa;" horiz-adv-x="1314" d="M158 385v725h258v-674q0 -125 49 -186.5t156 -61.5q156 0 214 98.5t58 280.5v543h258v-1110h-203l-35 143h-12q-53 -86 -147.5 -124.5t-198.5 -38.5q-186 0 -291.5 96t-105.5 309zM498 1241v27q33 39 74 91t79.5 108.5t65.5 101.5h295v-21q-35 -37 -96.5 -96t-129 -116.5 t-116.5 -94.5h-172z" />
<glyph unicode="&#xfb;" horiz-adv-x="1314" d="M158 385v725h258v-674q0 -125 49 -186.5t156 -61.5q156 0 214 98.5t58 280.5v543h258v-1110h-203l-35 143h-12q-53 -86 -147.5 -124.5t-198.5 -38.5q-186 0 -291.5 96t-105.5 309zM260 1241v25q37 39 86 92t94 109.5t74 101.5h293q27 -45 73 -101.5t96 -110.5t87 -91v-25 h-174q-53 33 -116 79t-116 101q-53 -55 -112.5 -101t-112.5 -79h-172z" />
<glyph unicode="&#xfc;" horiz-adv-x="1314" d="M158 385v725h258v-674q0 -125 49 -186.5t156 -61.5q156 0 214 98.5t58 280.5v543h258v-1110h-203l-35 143h-12q-53 -86 -147.5 -124.5t-198.5 -38.5q-186 0 -291.5 96t-105.5 309zM336 1401q0 66 35.5 94.5t87.5 28.5q49 0 87 -29t38 -94q0 -61 -38 -91t-87 -30 q-51 0 -87 30t-36 91zM733 1401q0 66 36 94.5t87 28.5q49 0 87 -29t38 -94q0 -61 -38 -91t-87 -30q-51 0 -87 30t-36 91z" />
<glyph unicode="&#xfd;" horiz-adv-x="1120" d="M0 1110h281l221 -627q23 -59 37 -117.5t20 -115.5h8q8 53 24.5 113.5t37.5 119.5l213 627h278l-473 -1257q-63 -166 -172.5 -255.5t-269.5 -89.5q-51 0 -89 5.5t-65 11.5v205q23 -4 54.5 -8.5t66.5 -4.5q94 0 151.5 56.5t88.5 140.5l32 90zM399 1241v27q33 39 74 91 t79.5 108.5t65.5 101.5h295v-21q-35 -37 -96.5 -96t-129 -116.5t-116.5 -94.5h-172z" />
<glyph unicode="&#xfe;" horiz-adv-x="1282" d="M166 -492v2048h258v-415q0 -43 -5 -95.5t-7 -80.5h12q47 70 124 117.5t202 47.5q193 0 312.5 -145t119.5 -428q0 -285 -119 -431t-313 -146q-125 0 -202 43t-124 102h-14q4 -27 9 -78t5 -84v-455h-258zM424 559q0 -178 54 -273.5t202 -95.5q123 0 180.5 95.5t57.5 275.5 t-57.5 270.5t-182.5 90.5q-137 0 -194.5 -82t-59.5 -246v-35z" />
<glyph unicode="&#xff;" horiz-adv-x="1120" d="M0 1110h281l221 -627q23 -59 37 -117.5t20 -115.5h8q8 53 24.5 113.5t37.5 119.5l213 627h278l-473 -1257q-63 -166 -172.5 -255.5t-269.5 -89.5q-51 0 -89 5.5t-65 11.5v205q23 -4 54.5 -8.5t66.5 -4.5q94 0 151.5 56.5t88.5 140.5l32 90zM238 1401q0 66 35.5 94.5 t87.5 28.5q49 0 87 -29t38 -94q0 -61 -38 -91t-87 -30q-51 0 -87 30t-36 91zM635 1401q0 66 36 94.5t87 28.5q49 0 87 -29t38 -94q0 -61 -38 -91t-87 -30q-51 0 -87 30t-36 91z" />
<glyph unicode="&#x152;" horiz-adv-x="1957" d="M121 735q0 227 71.5 395t218 261.5t371.5 93.5q53 0 111.5 -6t103.5 -17h840v-219h-573v-373h534v-219h-534v-430h573v-221h-838q-45 -8 -104 -14t-111 -6q-227 0 -373.5 94t-218 264t-71.5 397zM393 733q0 -248 95.5 -389t297.5 -141q57 0 117 9t101 28v985 q-41 18 -99 28.5t-117 10.5q-205 0 -300 -141.5t-95 -389.5z" />
<glyph unicode="&#x153;" horiz-adv-x="1978" d="M98 557q0 274 139.5 423.5t387.5 149.5q119 0 220 -47t167 -135q135 182 383 182q225 0 357 -133t132 -370v-131h-739q4 -156 83 -237t220 -81q111 0 199 21.5t178 62.5v-207q-84 -39 -172 -57t-213 -18q-133 0 -239.5 45t-178.5 137q-68 -90 -170 -136t-227 -46 q-154 0 -273 67.5t-186.5 196.5t-67.5 313zM365 557q0 -180 61 -274.5t199 -94.5q137 0 197.5 92.5t60.5 274.5t-61.5 274.5t-198.5 92.5t-197.5 -92.5t-60.5 -272.5zM1151 676h481q0 117 -57 190.5t-178 73.5q-104 0 -170 -66.5t-76 -197.5z" />
<glyph unicode="&#x178;" horiz-adv-x="1232" d="M0 1462h285l331 -645l334 645h283l-485 -893v-569h-263v559zM293 1753q0 66 35.5 94.5t87.5 28.5q49 0 87 -29t38 -94q0 -61 -38 -91t-87 -30q-51 0 -87 30t-36 91zM690 1753q0 66 36 94.5t87 28.5q49 0 87 -29t38 -94q0 -61 -38 -91t-87 -30q-51 0 -87 30t-36 91z" />
<glyph unicode="&#x2c6;" horiz-adv-x="966" d="M82 1241v25q37 39 86 92t94 109.5t74 101.5h293q27 -45 73 -101.5t96 -110.5t87 -91v-25h-174q-53 33 -116 79t-116 101q-53 -55 -112.5 -101t-112.5 -79h-172z" />
<glyph unicode="&#x2dc;" horiz-adv-x="964" d="M82 1239q12 145 81.5 219t172.5 74q57 0 110.5 -27.5t102.5 -55.5t96 -28q80 0 105 113h133q-12 -145 -83 -219t-171 -74q-55 0 -108.5 27.5t-103.5 55.5t-98 28q-80 0 -104 -113h-133z" />
<glyph unicode="&#x2000;" horiz-adv-x="960" />
<glyph unicode="&#x2001;" horiz-adv-x="1921" />
<glyph unicode="&#x2002;" horiz-adv-x="960" />
<glyph unicode="&#x2003;" horiz-adv-x="1921" />
<glyph unicode="&#x2004;" horiz-adv-x="640" />
<glyph unicode="&#x2005;" horiz-adv-x="480" />
<glyph unicode="&#x2006;" horiz-adv-x="320" />
<glyph unicode="&#x2007;" horiz-adv-x="320" />
<glyph unicode="&#x2008;" horiz-adv-x="240" />
<glyph unicode="&#x2009;" horiz-adv-x="384" />
<glyph unicode="&#x200a;" horiz-adv-x="106" />
<glyph unicode="&#x2010;" horiz-adv-x="659" d="M70 440v217h520v-217h-520z" />
<glyph unicode="&#x2011;" horiz-adv-x="659" d="M70 440v217h520v-217h-520z" />
<glyph unicode="&#x2012;" horiz-adv-x="659" d="M70 440v217h520v-217h-520z" />
<glyph unicode="&#x2013;" horiz-adv-x="1024" d="M82 449v202h860v-202h-860z" />
<glyph unicode="&#x2014;" horiz-adv-x="2048" d="M82 449v202h1884v-202h-1884z" />
<glyph unicode="&#x2018;" horiz-adv-x="411" d="M25 983q29 109 77 239t99 240h186q-29 -119 -56.5 -257t-43.5 -244h-248z" />
<glyph unicode="&#x2019;" horiz-adv-x="411" d="M25 961q29 119 57.5 257t42.5 244h248l14 -22q-27 -109 -76 -239t-100 -240h-186z" />
<glyph unicode="&#x201a;" horiz-adv-x="557" d="M64 -264q29 119 57.5 257t42.5 244h248l14 -22q-27 -109 -76 -239t-100 -240h-186z" />
<glyph unicode="&#x201c;" horiz-adv-x="845" d="M25 983q29 109 77 238t99 241h186q-29 -119 -58.5 -257t-43.5 -244h-246zM457 983q27 109 76 238t100 241h188q-29 -119 -58.5 -257t-43.5 -244h-248z" />
<glyph unicode="&#x201d;" horiz-adv-x="845" d="M25 961q29 119 57.5 257t42.5 244h248l14 -22q-27 -109 -77 -239t-99 -240h-186zM457 961q29 119 58.5 257t43.5 244h248l14 -22q-27 -109 -77 -239t-99 -240h-188z" />
<glyph unicode="&#x201e;" horiz-adv-x="974" d="M64 -264q29 119 57.5 257t42.5 244h248l14 -22q-27 -109 -77 -239t-99 -240h-186zM496 -264q29 119 58.5 257t43.5 244h248l14 -22q-27 -109 -77 -239t-99 -240h-188z" />
<glyph unicode="&#x2022;" horiz-adv-x="770" d="M121 748q0 160 75.5 226t188.5 66q109 0 186.5 -66.5t77.5 -225.5q0 -158 -77.5 -225.5t-186.5 -67.5q-113 0 -188.5 67.5t-75.5 225.5z" />
<glyph unicode="&#x2026;" horiz-adv-x="1701" d="M129 131q0 86 46 122t110 36q63 0 110 -36t47 -122q0 -84 -47 -121t-110 -37t-109.5 37t-46.5 121zM694 131q0 86 46 122t110 36q63 0 110 -36t47 -122q0 -84 -47 -121t-110 -37t-109.5 37t-46.5 121zM1259 131q0 86 46 122t110 36q63 0 110 -36t47 -122q0 -84 -47 -121 t-110 -37t-109.5 37t-46.5 121z" />
<glyph unicode="&#x202f;" horiz-adv-x="384" />
<glyph unicode="&#x2039;" horiz-adv-x="708" d="M82 539v26l360 439l187 -101l-283 -350l283 -348l-187 -103z" />
<glyph unicode="&#x203a;" horiz-adv-x="708" d="M82 205l280 348l-280 350l184 101l361 -439v-26l-361 -437z" />
<glyph unicode="&#x205f;" horiz-adv-x="480" />
<glyph unicode="&#x20ac;" d="M59 489v162h129q-2 16 -3 32.5t-1 37.5q0 18 1 35.5t1 27.5h-127v160h144q39 248 193.5 390.5t396.5 142.5q102 0 189 -21.5t169 -66.5l-90 -199q-66 31 -131.5 51.5t-136.5 20.5q-133 0 -219.5 -80t-114.5 -238h440v-160h-455q0 -12 -1 -28.5t-1 -34.5v-33.5t2 -36.5 h392v-162h-375q29 -139 117 -213.5t235 -74.5q78 0 150.5 16t134.5 43v-219q-57 -29 -131 -45t-170 -16q-244 0 -395.5 134t-194.5 375h-148z" />
<glyph unicode="&#x2122;" horiz-adv-x="1583" d="M35 1352v110h545v-110h-209v-611h-129v611h-207zM666 741v721h192l193 -555l198 555h187v-721h-131v418q0 16 2 64.5t4 72.5h-8l-207 -555h-109l-196 555h-9q2 -33 4 -73.5t2 -53.5v-428h-122z" />
<glyph unicode="&#x25fc;" horiz-adv-x="1105" d="M0 0v1106h1106v-1106h-1106z" />
<glyph unicode="&#xfb01;" horiz-adv-x="1347" d="M37 915v123l178 74v76q0 213 101.5 296t277.5 83q80 0 146.5 -13.5t109.5 -29.5l-66 -193q-35 10 -76.5 19.5t-91.5 9.5q-76 0 -109.5 -46t-33.5 -132v-72h268v-195h-268v-915h-258v915h-178zM912 1403q0 76 42 105.5t101 29.5q57 0 100 -29.5t43 -105.5t-43 -106.5 t-100 -30.5q-59 0 -101 30.5t-42 106.5zM926 0v1110h258v-1110h-258z" />
<glyph unicode="&#xfb02;" horiz-adv-x="1347" d="M37 915v123l178 74v76q0 213 101.5 296t277.5 83q80 0 146.5 -13.5t109.5 -29.5l-66 -193q-35 10 -76.5 19.5t-91.5 9.5q-76 0 -109.5 -46t-33.5 -132v-72h268v-195h-268v-915h-258v915h-178zM926 0v1556h258v-1556h-258z" />
<glyph unicode="&#xfb03;" horiz-adv-x="2107" d="M37 915v123l178 74v76q0 213 101.5 296t277.5 83q80 0 146.5 -13.5t109.5 -29.5l-66 -193q-35 10 -76.5 19.5t-91.5 9.5q-76 0 -109.5 -46t-33.5 -132v-72h268v-195h-268v-915h-258v915h-178zM797 915v123l178 74v76q0 213 101.5 296t277.5 83q80 0 146.5 -13.5 t109.5 -29.5l-66 -193q-35 10 -76.5 19.5t-91.5 9.5q-76 0 -109.5 -46t-33.5 -132v-72h268v-195h-268v-915h-258v915h-178zM1672 1403q0 76 42 105.5t101 29.5q57 0 100 -29.5t43 -105.5t-43 -106.5t-100 -30.5q-59 0 -101 30.5t-42 106.5zM1686 0v1110h258v-1110h-258z" />
<glyph unicode="&#xfb04;" horiz-adv-x="2107" d="M37 915v123l178 74v76q0 213 101.5 296t277.5 83q80 0 146.5 -13.5t109.5 -29.5l-66 -193q-35 10 -76.5 19.5t-91.5 9.5q-76 0 -109.5 -46t-33.5 -132v-72h268v-195h-268v-915h-258v915h-178zM797 915v123l178 74v76q0 213 101.5 296t277.5 83q80 0 146.5 -13.5 t109.5 -29.5l-66 -193q-35 10 -76.5 19.5t-91.5 9.5q-76 0 -109.5 -46t-33.5 -132v-72h268v-195h-268v-915h-258v915h-178zM1686 0v1556h258v-1556h-258z" />
</font>
</defs>
</svg>
