<?xml version="1.0" standalone="no"?>
<!DOCTYPE svg PUBLIC "-//W3C//DTD SVG 1.1//EN" "http://www.w3.org/Graphics/SVG/1.1/DTD/svg11.dtd" >
<svg xmlns="http://www.w3.org/2000/svg" xmlns:xlink="http://www.w3.org/1999/xlink" version="1.1">
<metadata></metadata>
<defs>
<font id="noto_sansextrabold" horiz-adv-x="1183" >
<font-face units-per-em="2048" ascent="1638" descent="-410" />
<missing-glyph horiz-adv-x="532" />
<glyph horiz-adv-x="0" />
<glyph horiz-adv-x="682" />
<glyph horiz-adv-x="0" />
<glyph horiz-adv-x="0" />
<glyph unicode="&#xd;" horiz-adv-x="532" />
<glyph unicode=" "  horiz-adv-x="532" />
<glyph unicode="&#x09;" horiz-adv-x="532" />
<glyph unicode="&#xa0;" horiz-adv-x="532" />
<glyph unicode="!" horiz-adv-x="589" d="M102 154q0 100 56.5 140t136.5 40q78 0 133 -40t55 -140q0 -96 -55 -138.5t-133 -42.5q-80 0 -136.5 42.5t-56.5 138.5zM102 1462h387l-51 -962h-284z" />
<glyph unicode="&#x22;" horiz-adv-x="1015" d="M127 1462h315l-41 -528h-233zM573 1462h316l-41 -528h-234z" />
<glyph unicode="#" horiz-adv-x="1337" d="M41 399v228h276l39 202h-245v234h288l74 397h242l-76 -397h184l76 397h240l-76 -397h233v-234h-276l-41 -202h252v-228h-293l-78 -399h-242l76 399h-182l-74 -399h-237l71 399h-231zM557 627h182l39 202h-182z" />
<glyph unicode="$" horiz-adv-x="1175" d="M72 1038q0 170 120.5 262.5t315.5 106.5v147h160v-143q119 -6 221 -30.5t192 -63.5l-92 -252q-78 33 -161 52.5t-160 27.5v-275q127 -43 227 -90t158.5 -121.5t58.5 -195.5q0 -156 -108.5 -264.5t-335.5 -128.5v-189h-160v185q-133 4 -233.5 25.5t-186.5 58.5v286 q90 -41 204 -70.5t216 -37.5v282q-143 49 -240.5 105.5t-146.5 133.5t-49 189zM387 1047q0 -41 27.5 -67.5t93.5 -53.5v215q-121 -16 -121 -94zM668 334q127 20 127 106q0 39 -30 65.5t-97 55.5v-227z" />
<glyph unicode="%" horiz-adv-x="1890" d="M51 1026q0 217 88.5 337t268.5 120q172 0 268 -120t96 -337t-90 -339t-274 -122q-168 0 -262.5 122t-94.5 339zM326 1024q0 -115 19.5 -176.5t66.5 -61.5t66.5 61.5t19.5 176.5t-19.5 174t-66.5 59t-66.5 -59t-19.5 -174zM403 0l811 1462h267l-811 -1462h-267zM1116 442 q0 217 88.5 337t268.5 120q172 0 268 -120t96 -337t-90 -338.5t-274 -121.5q-168 0 -262.5 121.5t-94.5 338.5zM1391 440q0 -113 19.5 -174t66.5 -61q86 0 86 235q0 236 -86 236q-47 0 -66.5 -61.5t-19.5 -174.5z" />
<glyph unicode="&#x26;" horiz-adv-x="1583" d="M78 399q0 145 70.5 241.5t199.5 168.5q-72 82 -105.5 158.5t-33.5 171.5q0 154 118.5 249t325.5 95q190 0 309 -88t119 -244q0 -135 -79.5 -229.5t-200.5 -165.5l246 -236q39 61 66.5 133t45.5 148h359q-31 -131 -93.5 -264.5t-146.5 -237.5l309 -299h-436l-107 109 q-88 -59 -186 -94t-250 -35q-170 0 -287.5 54t-180 149.5t-62.5 215.5zM436 428q0 -76 56.5 -122t142.5 -46q63 0 113.5 16.5t87.5 40.5l-295 293q-51 -39 -78 -83t-27 -99zM524 1122q0 -47 27 -91t65 -85q72 41 111 87t39 100q0 55 -36 79.5t-81 24.5q-47 0 -86 -25.5 t-39 -89.5z" />
<glyph unicode="'" horiz-adv-x="569" d="M127 1462h315l-41 -528h-233z" />
<glyph unicode="(" horiz-adv-x="712" d="M78 571q0 250 68.5 486.5t224.5 423.5h284q-139 -193 -206.5 -429.5t-67.5 -478.5q0 -238 67.5 -473t204.5 -424h-282q-156 180 -224.5 413.5t-68.5 481.5z" />
<glyph unicode=")" horiz-adv-x="712" d="M59 1481h285q156 -186 223.5 -423t67.5 -487q0 -248 -67.5 -481t-223.5 -414h-283q137 188 205 424t68 473q0 242 -68.5 478.5t-206.5 429.5z" />
<glyph unicode="*" horiz-adv-x="1107" d="M55 1030l41 268l359 -102l-41 360h280l-39 -360l365 102l35 -272l-328 -22l215 -289l-242 -129l-149 301l-131 -299l-252 127l213 289z" />
<glyph unicode="+" d="M90 600v244h381v377h242v-377h381v-244h-381v-373h-242v373h-381z" />
<glyph unicode="," horiz-adv-x="606" d="M61 -274q29 131 56.5 278.5t42.5 261.5h309l14 -22q-18 -74 -46.5 -166t-62.5 -184.5t-67 -167.5h-246z" />
<glyph unicode="-" horiz-adv-x="655" d="M53 410v278h549v-278h-549z" />
<glyph unicode="." horiz-adv-x="587" d="M102 154q0 100 56.5 140t136.5 40q78 0 133 -40t55 -140q0 -96 -55 -138.5t-133 -42.5q-80 0 -136.5 42.5t-56.5 138.5z" />
<glyph unicode="/" horiz-adv-x="872" d="M12 -10l545 1483h309l-544 -1483h-310z" />
<glyph unicode="0" d="M74 731q0 236 50 405t163.5 259t304.5 90q268 0 393 -199t125 -555q0 -236 -50 -403.5t-164 -257.5t-304 -90q-270 0 -394 198.5t-124 552.5zM420 731q0 -236 36 -353.5t136 -117.5t136 118t36 353q0 233 -36 353t-136 120t-136 -120t-36 -353z" />
<glyph unicode="1" d="M104 1071l486 391h301v-1462h-352v788q0 27 1 80.5t2 112.5t3 106q-16 -20 -45 -47.5t-54 -48.5l-167 -137z" />
<glyph unicode="2" d="M63 1262q63 57 135 107t169.5 82t234.5 32q147 0 254 -52.5t164 -141.5t57 -204q0 -123 -47 -223t-139 -198.5t-225 -221.5l-152 -139v-12h598v-291h-1040v236l362 366q111 115 176.5 188.5t93 130t27.5 119.5q0 78 -46 114t-116 36q-78 0 -152.5 -39t-162.5 -113z" />
<glyph unicode="3" d="M74 59v293q94 -49 196.5 -72.5t188.5 -23.5q156 0 216 50t60 138q0 55 -28.5 94.5t-101.5 59.5t-204 20h-100v265h102q125 0 193 22.5t95.5 62.5t27.5 91q0 143 -189 143q-100 0 -179 -37t-122 -63l-153 235q88 61 204.5 103.5t290.5 42.5q225 0 356.5 -90t131.5 -254 q0 -102 -43 -176t-116 -122t-161 -71v-6q174 -23 268.5 -108t94.5 -234q0 -123 -63.5 -223.5t-195.5 -159.5t-341 -59q-131 0 -232.5 20t-195.5 59z" />
<glyph unicode="4" d="M35 293v250l627 919h321v-903h168v-266h-168v-293h-342v293h-606zM340 559h301v211q0 41 2 100.5t4 108.5t4 61h-10q-18 -43 -36.5 -76.5t-45.5 -74.5z" />
<glyph unicode="5" d="M98 59v293q76 -39 183.5 -66.5t199.5 -27.5q125 0 191.5 52t66.5 159q0 96 -66.5 148.5t-203.5 52.5q-55 0 -112.5 -11.5t-98.5 -21.5l-133 68l55 757h811v-293h-512l-22 -243q35 6 71.5 13t108.5 7q129 0 231.5 -53t162 -155.5t59.5 -248.5q0 -244 -147.5 -376.5 t-440.5 -132.5q-121 0 -223.5 20t-180.5 59z" />
<glyph unicode="6" d="M72 621q0 125 18.5 249.5t64.5 234t130 194.5t215 133.5t319 48.5q43 0 103.5 -4t99.5 -13v-274q-41 8 -89 13t-108 5q-166 0 -258 -51t-132 -145t-46 -219h12q41 72 113 121t191 49q193 0 303 -123t110 -346q0 -244 -136 -379t-370 -135q-154 0 -275.5 68.5t-193 211 t-71.5 361.5zM418 510q0 -59 20.5 -117.5t62.5 -96.5t105 -38q78 0 126 55.5t48 173.5q0 94 -41 149.5t-129 55.5q-90 0 -141 -57t-51 -125z" />
<glyph unicode="7" d="M66 1171v291h1050v-213l-534 -1249h-363l526 1171h-679z" />
<glyph unicode="8" d="M70 377q0 152 78.5 241t195.5 146q-94 61 -161.5 148t-67.5 218q0 115 64.5 194t173 118t241.5 39q135 0 242.5 -39t171 -118t63.5 -196q0 -133 -72.5 -218t-185.5 -138q74 -41 142.5 -94t113.5 -126t45 -169q0 -180 -136 -291.5t-386 -111.5q-260 0 -391 108.5 t-131 288.5zM391 395q0 -72 50.5 -117t146.5 -45q104 0 154.5 43t50.5 113q0 51 -30 91t-73 70t-80 52l-26 16q-84 -41 -138.5 -94t-54.5 -129zM442 1100q0 -63 44 -106.5t106 -73.5q57 27 104 67.5t47 112.5q0 59 -44 94t-107 35t-106.5 -35t-43.5 -94z" />
<glyph unicode="9" d="M66 969q0 240 135 376t370 136q152 0 275 -70t194.5 -214.5t71.5 -367.5q0 -174 -36 -328.5t-121 -271t-229 -183t-361 -66.5q-43 0 -101.5 3t-97.5 9v278q84 -18 180 -18q174 0 269.5 52t134 146.5t45.5 217.5h-13q-41 -72 -108.5 -121t-200.5 -49q-186 0 -296.5 122.5 t-110.5 348.5zM401 973q0 -96 43 -151.5t131 -55.5q84 0 137.5 58.5t53.5 123.5q0 61 -20.5 119.5t-61.5 96.5t-104 38q-80 0 -129.5 -55t-49.5 -174z" />
<glyph unicode=":" horiz-adv-x="587" d="M102 154q0 100 56.5 140t136.5 40q78 0 133 -40t55 -140q0 -96 -55 -138.5t-133 -42.5q-80 0 -136.5 42.5t-56.5 138.5zM102 963q0 98 56.5 139t136.5 41q78 0 133 -41t55 -139q0 -94 -55 -137.5t-133 -43.5q-80 0 -136.5 43.5t-56.5 137.5z" />
<glyph unicode=";" horiz-adv-x="595" d="M61 -274q29 131 56.5 278.5t42.5 261.5h309l14 -22q-18 -74 -46.5 -166t-62.5 -184.5t-67 -167.5h-246zM104 963q0 98 56.5 139t136.5 41q76 0 133 -41t57 -139q0 -94 -57 -137.5t-133 -43.5q-80 0 -136.5 43.5t-56.5 137.5z" />
<glyph unicode="&#x3c;" d="M90 635v156l1002 501v-266l-656 -303l656 -266v-267z" />
<glyph unicode="=" d="M90 391v242h1004v-242h-1004zM90 811v240h1004v-240h-1004z" />
<glyph unicode="&#x3e;" d="M90 190v267l655 266l-655 303v266l1002 -501v-156z" />
<glyph unicode="?" horiz-adv-x="1003" d="M4 1350q104 59 226 96t268 37q219 0 341 -101.5t122 -261.5q0 -123 -58.5 -207t-181.5 -168q-90 -63 -121 -99t-31 -91v-55h-284v80q0 96 40 165.5t146 141.5q96 66 130 109.5t34 99.5q0 53 -44 82.5t-118 29.5q-82 0 -168 -26.5t-178 -75.5zM248 154q0 100 56 140 t136 40q76 0 132.5 -40t56.5 -140q0 -96 -56.5 -138.5t-132.5 -42.5q-80 0 -136 42.5t-56 138.5z" />
<glyph unicode="@" horiz-adv-x="1837" d="M92 596q0 184 61.5 344t177 278.5t278.5 185t366 66.5q227 0 400 -88t271.5 -251t98.5 -388q0 -96 -23.5 -188t-70.5 -167t-118 -120t-163 -45q-76 0 -137.5 34t-89.5 91h-17q-43 -51 -109.5 -88t-156.5 -37q-188 0 -284.5 110.5t-96.5 291.5q0 137 58.5 242.5t170 167 t267.5 61.5q98 0 198.5 -17.5t161.5 -40.5l-20 -420q-2 -16 -2 -40.5v-40.5q0 -68 18.5 -91.5t44.5 -23.5q41 0 70 44t43 117.5t14 161.5q0 244 -141 382.5t-383 138.5q-209 0 -352.5 -86t-216 -237.5t-72.5 -344.5q0 -262 142.5 -408.5t418.5 -146.5q117 0 250 26.5 t248 67.5v-209q-102 -43 -226 -67.5t-262 -24.5q-258 0 -440 91t-279.5 261t-97.5 408zM733 623q0 -106 42 -153.5t112 -47.5q94 0 132 70.5t46 205.5l12 191q-39 8 -92 8q-90 0 -145.5 -39t-81 -101t-25.5 -134z" />
<glyph unicode="A" horiz-adv-x="1447" d="M0 0l498 1468h446l504 -1468h-381l-90 313h-506l-90 -313h-381zM551 604h348l-86 293q-10 37 -27.5 99.5t-35 128t-27.5 110.5q-10 -45 -26.5 -111.5t-33 -129t-26.5 -97.5z" />
<glyph unicode="B" horiz-adv-x="1378" d="M172 0v1462h479q303 0 447.5 -88t144.5 -280q0 -133 -66.5 -216t-160.5 -102v-10q66 -16 126 -51t97 -104.5t37 -184.5q0 -201 -146.5 -313.5t-400.5 -112.5h-557zM520 279h174q123 0 171 49t48 129q0 72 -49 120t-178 48h-166v-346zM520 891h154q117 0 164 42t47 114 q0 141 -226 141h-139v-297z" />
<glyph unicode="C" horiz-adv-x="1316" d="M113 729q0 221 80.5 391t236.5 266.5t379 96.5q109 0 221.5 -25.5t216.5 -77.5l-108 -278q-82 39 -164 65.5t-168 26.5q-162 0 -249 -124t-87 -343q0 -223 84 -341t262 -118q92 0 182.5 23.5t190.5 60.5v-295q-96 -41 -194.5 -59t-213.5 -18q-233 0 -380.5 94t-218 262 t-70.5 393z" />
<glyph unicode="D" horiz-adv-x="1509" d="M172 0v1462h481q346 0 545 -181t199 -527q0 -377 -209 -565.5t-576 -188.5h-440zM520 287h113q207 0 305 113.5t98 340.5q0 223 -95 330t-277 107h-144v-891z" />
<glyph unicode="E" horiz-adv-x="1136" d="M172 0v1462h854v-282h-506v-281h469v-283h-469v-329h506v-287h-854z" />
<glyph unicode="F" horiz-adv-x="1114" d="M172 0v1462h850v-282h-506v-332h469v-283h-469v-565h-344z" />
<glyph unicode="G" horiz-adv-x="1497" d="M113 733q0 229 88 397t259 260.5t419 92.5q125 0 242.5 -24.5t207.5 -65.5l-112 -277q-72 35 -157 56.5t-181 21.5q-133 0 -224.5 -60.5t-136.5 -166t-45 -240.5q0 -211 87 -335t271 -124q51 0 99.5 6.5t81.5 12.5v270h-271v281h605v-772q-115 -39 -249 -62.5t-292 -23.5 q-322 0 -507 189t-185 564z" />
<glyph unicode="H" horiz-adv-x="1566" d="M172 0v1462h350v-559h525v559h348v-1462h-348v614h-525v-614h-350z" />
<glyph unicode="I" horiz-adv-x="845" d="M68 0v199l180 75v914l-180 76v198h710v-198l-180 -76v-914l180 -75v-199h-710z" />
<glyph unicode="J" horiz-adv-x="698" d="M-156 -141q33 -6 69 -13.5t77 -7.5q92 0 139 57.5t47 204.5v1362h350v-1345q0 -203 -62.5 -326t-173 -178t-253.5 -55q-66 0 -113 6t-80 14v281z" />
<glyph unicode="K" horiz-adv-x="1382" d="M172 0v1462h350v-653q27 45 58.5 90t62.5 88l356 475h383l-487 -651l487 -811h-397l-338 590l-125 -82v-508h-350z" />
<glyph unicode="L" horiz-adv-x="1173" d="M172 0v1462h348v-1177h580v-285h-928z" />
<glyph unicode="M" horiz-adv-x="1953" d="M172 0v1462h471l326 -1081h8l336 1081h469v-1462h-324v668q0 70 3 154.5t6 161.5t6 118h-9l-338 -1102h-327l-328 1104h-8q4 -41 8 -118t8 -165t4 -162v-659h-311z" />
<glyph unicode="N" horiz-adv-x="1685" d="M172 0v1462h449l587 -1059h6q-2 37 -5 100.5t-6 138.5t-3 142v678h313v-1462h-450l-590 1071h-8q2 -39 5 -104.5t7 -142t6 -148.5v-676h-311z" />
<glyph unicode="O" horiz-adv-x="1630" d="M113 735q0 227 74.5 395t230 261.5t399.5 93.5t398.5 -93.5t228.5 -262.5t74 -396t-74 -396t-228.5 -263t-400.5 -94q-242 0 -397.5 94t-230 264t-74.5 397zM479 733q0 -215 79 -338t257 -123q180 0 258 123t78 338t-77 339t-257 124t-259 -124t-79 -339z" />
<glyph unicode="P" horiz-adv-x="1290" d="M172 0v1462h485q281 0 415 -120.5t134 -340.5q0 -129 -53 -242.5t-176 -184t-334 -70.5h-123v-504h-348zM520 788h92q106 0 174 47.5t68 155.5q0 187 -209 187h-125v-390z" />
<glyph unicode="Q" horiz-adv-x="1630" d="M113 735q0 227 74.5 395t230 261.5t399.5 93.5t398.5 -93.5t228.5 -262.5t74 -396q0 -238 -82 -415t-258 -265l354 -401h-440l-258 328h-19q-242 0 -397.5 94t-230 264t-74.5 397zM479 733q0 -215 79 -338t257 -123q180 0 258 123t78 338t-77 339t-257 124t-259 -124 t-79 -339z" />
<glyph unicode="R" horiz-adv-x="1368" d="M172 0v1462h451q589 0 589 -435q0 -144 -74.5 -238.5t-187.5 -151.5l428 -637h-391l-330 549h-137v-549h-348zM520 821h88q125 0 187.5 46t62.5 147q0 88 -59.5 131t-190.5 43h-88v-367z" />
<glyph unicode="S" horiz-adv-x="1153" d="M92 70v317q111 -51 226.5 -86t222.5 -35q102 0 146 37t44 96q0 72 -70.5 115t-203.5 104q-86 41 -167 93.5t-132.5 135.5t-51.5 214q0 205 141.5 313.5t379.5 108.5q127 0 236.5 -29t211.5 -74l-110 -272q-98 43 -183.5 66.5t-165.5 23.5q-84 0 -124.5 -35t-40.5 -88 q0 -43 28.5 -74.5t90 -64.5t161.5 -80q109 -49 186.5 -106.5t118.5 -135t41 -190.5q0 -125 -61.5 -226.5t-184 -159.5t-309.5 -58q-131 0 -232.5 22.5t-197.5 67.5z" />
<glyph unicode="T" horiz-adv-x="1198" d="M45 1174v288h1106v-288h-379v-1174h-348v1174h-379z" />
<glyph unicode="U" horiz-adv-x="1548" d="M162 545v917h350v-878q0 -170 66.5 -241t197.5 -71q137 0 199.5 75t62.5 239v876h348v-915q0 -166 -67.5 -294t-205.5 -200.5t-345 -72.5q-295 0 -450.5 151.5t-155.5 413.5z" />
<glyph unicode="V" horiz-adv-x="1372" d="M0 1462h375l237 -811q10 -33 25.5 -94t30 -128t18.5 -110q6 43 19.5 109t29 128t23.5 93l241 813h373l-489 -1462h-396z" />
<glyph unicode="W" horiz-adv-x="2048" d="M14 1462h340l174 -768q10 -43 24.5 -114.5t28 -147.5t19.5 -123q8 66 24.5 155t34 172t29.5 130l174 696h326l174 -696q8 -35 19.5 -92.5t24.5 -124t24.5 -130t17.5 -110.5q6 51 19.5 124t27.5 144.5t25 114.5l174 770h340l-367 -1462h-405l-170 707q-4 20 -14.5 65 t-20.5 98.5t-19.5 103.5t-11.5 83q-4 -33 -13 -83t-19.5 -103.5t-19.5 -97.5t-16 -66l-172 -707h-403z" />
<glyph unicode="X" horiz-adv-x="1419" d="M2 0l485 752l-456 710h387l293 -491l282 491h387l-458 -735l493 -727h-401l-314 508l-313 -508h-385z" />
<glyph unicode="Y" horiz-adv-x="1314" d="M0 1462h379l278 -575l281 575h377l-484 -893v-569h-348v559z" />
<glyph unicode="Z" horiz-adv-x="1216" d="M55 0v221l670 957h-653v284h1077v-221l-670 -956h686v-285h-1110z" />
<glyph unicode="[" horiz-adv-x="671" d="M131 -334v1815h492v-230h-205v-1353h205v-232h-492z" />
<glyph unicode="\" horiz-adv-x="872" d="M10 1473h307l545 -1483h-307z" />
<glyph unicode="]" horiz-adv-x="671" d="M49 -102h205v1353h-205v230h492v-1815h-492v232z" />
<glyph unicode="^" horiz-adv-x="1126" d="M18 512l439 958h155l502 -958h-266l-305 612l-267 -612h-258z" />
<glyph unicode="_" horiz-adv-x="925" d="M-4 -160h934v-188h-934v188z" />
<glyph unicode="`" horiz-adv-x="794" d="M82 1548v21h383q31 -45 77 -101.5t92 -108.5t79 -91v-27h-230q-41 27 -95 67t-112.5 85t-109.5 86t-84 69z" />
<glyph unicode="a" horiz-adv-x="1255" d="M80 340q0 180 126 266t369 96l193 7v32q0 82 -42 119t-116 37q-76 0 -154.5 -23.5t-160.5 -58.5l-105 229q92 49 209 76t252 27q219 0 340 -101.5t121 -300.5v-745h-240l-67 152h-8q-72 -90 -152 -131t-219 -41q-150 0 -248 88t-98 272zM432 348q0 -66 36 -93.5t95 -27.5 q86 0 145.5 52.5t59.5 142.5v90l-104 -4q-129 -4 -180.5 -46t-51.5 -114z" />
<glyph unicode="b" horiz-adv-x="1306" d="M147 0v1556h347v-358q0 -61 -4.5 -119.5t-10.5 -99.5h15q43 70 116.5 118t192.5 48q182 0 298 -147.5t116 -432.5q0 -289 -118 -437t-306 -148q-121 0 -188.5 43t-110.5 94h-23l-55 -117h-269zM494 559q0 -150 42 -225.5t152 -75.5q82 0 129 80t47 231q0 303 -180 303 q-102 0 -145 -66.5t-45 -203.5v-43z" />
<glyph unicode="c" horiz-adv-x="1077" d="M90 557q0 205 74 335t202 191.5t293 61.5q111 0 199 -22.5t160 -57.5l-100 -260q-72 29 -133.5 47t-125.5 18q-106 0 -162.5 -76.5t-56.5 -234.5t59.5 -230.5t162.5 -72.5q88 0 167.5 25.5t151.5 72.5v-282q-72 -47 -152.5 -69.5t-197.5 -22.5q-254 0 -397.5 138 t-143.5 439z" />
<glyph unicode="d" horiz-adv-x="1306" d="M90 561q0 289 117 436.5t305 147.5q119 0 192.5 -47t118.5 -117h8q-6 37 -13 105.5t-7 136.5v333h346v-1556h-262l-70 145h-14q-43 -70 -115.5 -117.5t-193.5 -47.5q-182 0 -297 147t-115 434zM438 555q0 -154 52.5 -227.5t142.5 -73.5q111 0 157 67.5t48 204.5v31 q0 152 -44 230.5t-165 78.5q-88 0 -139.5 -77.5t-51.5 -233.5z" />
<glyph unicode="e" horiz-adv-x="1234" d="M90 555q0 299 149.5 444.5t393.5 145.5q238 0 377 -130t139 -382v-160h-711q4 -111 72 -176.5t192 -65.5q109 0 197 20.5t182 65.5v-256q-82 -43 -176 -62t-231 -19q-170 0 -302 61t-207 188t-75 326zM444 696h387q-2 90 -50 149.5t-142 59.5q-80 0 -132 -51t-63 -158z " />
<glyph unicode="f" horiz-adv-x="817" d="M43 866v168l164 88v54q0 217 98 304t291 87q88 0 160.5 -13.5t134.5 -35.5l-82 -238q-33 10 -71 17.5t-85 7.5q-106 0 -106 -129v-52h254v-258h-254v-866h-344v866h-160z" />
<glyph unicode="g" horiz-adv-x="1306" d="M90 561q0 281 113.5 432.5t306.5 151.5q111 0 187.5 -43t129.5 -119h9l26 141h295v-1126q0 -240 -144.5 -365t-434.5 -125q-127 0 -230.5 14.5t-200.5 51.5v281q102 -43 204 -64.5t227 -21.5q236 0 235 215v22q0 61 10 139h-10q-49 -78 -126 -121.5t-183 -43.5 q-190 0 -302 151.5t-112 429.5zM440 555q0 -158 47.5 -232.5t147.5 -74.5q106 0 154.5 64.5t48.5 207.5v43q0 158 -46 233.5t-161 75.5q-190 0 -191 -317z" />
<glyph unicode="h" horiz-adv-x="1357" d="M147 0v1556h347v-272q0 -102 -6.5 -183t-10.5 -118h19q53 88 135 125t182 37q117 0 207 -43t142 -134t52 -235v-733h-346v637q0 235 -158 235h-1q-123 0 -169 -93t-46 -265v-514h-347z" />
<glyph unicode="i" horiz-adv-x="643" d="M137 1411q0 94 54.5 127t132.5 33q76 0 130 -33t54 -127q0 -92 -54.5 -126t-129.5 -34q-78 0 -132.5 34t-54.5 126zM150 0v1124h344v-1124h-344z" />
<glyph unicode="j" horiz-adv-x="643" d="M-119 -197q35 -8 64.5 -13t68.5 -5q55 0 94 34t39 136v1169h347v-1233q0 -102 -40 -189t-129 -140.5t-239 -53.5q-49 0 -107.5 7.5t-97.5 17.5v270zM137 1411q0 94 54.5 127t130.5 33t131 -33t55 -127q0 -92 -55.5 -126t-130.5 -34q-76 0 -130.5 34t-54.5 126z" />
<glyph unicode="k" horiz-adv-x="1306" d="M147 0v1556h347v-657q0 -66 -5.5 -139.5t-13.5 -138.5h6q16 25 53 77t74 97l287 329h385l-420 -483l447 -641h-396l-288 430l-129 -100v-330h-347z" />
<glyph unicode="l" horiz-adv-x="641" d="M147 0v1556h347v-1556h-347z" />
<glyph unicode="m" horiz-adv-x="2027" d="M147 0v1124h263l49 -141h14q47 78 134 120t198 42q242 0 338 -160h20q53 80 141.5 120t188.5 40q193 0 292 -97.5t99 -314.5v-733h-344v637q0 123 -39 179t-115 56q-109 0 -153.5 -83.5t-44.5 -241.5v-547h-344v637q0 121 -37 178t-115 57q-115 0 -156.5 -93t-41.5 -267 v-512h-347z" />
<glyph unicode="n" horiz-adv-x="1357" d="M147 0v1124h263l47 -145h16q53 82 142 124t202 42q178 0 287.5 -97.5t109.5 -314.5v-733h-344v637q0 117 -38.5 176t-122.5 59q-127 0 -171 -93t-44 -267v-512h-347z" />
<glyph unicode="o" horiz-adv-x="1284" d="M90 565q0 279 147.5 429.5t407.5 150.5q160 0 284 -67.5t194.5 -197t70.5 -315.5q0 -283 -148.5 -434t-406.5 -151q-160 0 -284 67.5t-194.5 198.5t-70.5 319zM440 565q0 -156 47.5 -237.5t155.5 -81.5q106 0 153.5 82t47.5 237q0 156 -47 235t-156 79q-106 0 -153.5 -79 t-47.5 -235z" />
<glyph unicode="p" horiz-adv-x="1306" d="M147 -492v1616h281l49 -143h17q43 66 116.5 115t192.5 49q188 0 301 -148.5t113 -431.5q0 -193 -55.5 -322.5t-151 -196t-217.5 -66.5q-121 0 -189.5 43t-109.5 94h-15q6 -39 10.5 -82t4.5 -92v-435h-347zM494 567q0 -150 40.5 -229.5t151.5 -79.5q178 0 178 311 q0 156 -45 229.5t-137 73.5q-104 0 -145 -67.5t-43 -206.5v-31z" />
<glyph unicode="q" horiz-adv-x="1306" d="M90 561q0 287 117 435.5t303 148.5q121 0 196.5 -46t120.5 -116h9l26 141h295v-1616h-344v469q0 84 12 168h-12q-41 -70 -115.5 -117.5t-193.5 -47.5q-186 0 -300 147t-114 434zM440 555q0 -158 47.5 -232.5t147.5 -74.5q113 0 157 67.5t46 204.5v43q0 147 -44 228 t-163 81q-96 0 -143.5 -80.5t-47.5 -236.5z" />
<glyph unicode="r" horiz-adv-x="944" d="M147 0v1124h261l53 -184h14q49 84 134.5 144.5t191.5 60.5q27 0 59.5 -3t50.5 -7l-28 -324q-41 10 -111 10q-66 0 -130 -21.5t-106 -76.5t-42 -160v-563h-347z" />
<glyph unicode="s" horiz-adv-x="1036" d="M90 823q0 160 123 241t330 81q109 0 205 -22.5t198 -69.5l-98 -234q-82 37 -162 59.5t-143 22.5q-119 0 -119 -61q0 -25 17.5 -42.5t67.5 -41t146 -64.5q96 -39 164 -82t102.5 -107.5t34.5 -162.5q0 -168 -115.5 -264t-361.5 -96q-119 0 -208 14t-179 51v279 q98 -45 204.5 -69t180.5 -24q78 0 113 20.5t35 57.5q0 27 -17.5 47.5t-70 46t-154.5 68.5q-100 41 -164.5 87t-96.5 108.5t-32 156.5z" />
<glyph unicode="t" horiz-adv-x="913" d="M49 866v144l172 110l94 238h222v-234h299v-258h-299v-493q0 -59 32.5 -89t87.5 -30q51 0 97.5 10t93.5 27v-254q-55 -25 -127 -41t-170 -16q-104 0 -185 33.5t-127 116.5t-46 230v506h-144z" />
<glyph unicode="u" horiz-adv-x="1357" d="M143 391v733h346v-637q0 -115 38 -174t122 -59q125 0 170 92t45 266v512h346v-1124h-262l-45 143h-20q-53 -86 -145.5 -124.5t-196.5 -38.5q-174 0 -286 97t-112 314z" />
<glyph unicode="v" horiz-adv-x="1204" d="M0 1124h360l205 -651q10 -35 19.5 -85t11.5 -91h8q2 43 11.5 89t21.5 85l209 653h358l-428 -1124h-348z" />
<glyph unicode="w" horiz-adv-x="1804" d="M23 1124h339l113 -467q12 -51 23.5 -119.5t20.5 -135t13 -113.5h7q2 35 9 85t16 102t17.5 93t10.5 56l123 499h381l114 -501q6 -33 18.5 -95.5t23 -128t12.5 -110.5h6q4 43 13 111.5t21.5 139t24.5 117.5l117 467h336l-318 -1124h-370l-101 440q-8 37 -21.5 95.5 t-26.5 124t-24.5 120t-17.5 80.5h-8q-4 -27 -15.5 -82t-25.5 -120.5t-27.5 -126t-21.5 -101.5l-103 -430h-366z" />
<glyph unicode="x" horiz-adv-x="1232" d="M10 0l373 573l-354 551h391l196 -338l199 338h391l-358 -551l375 -573h-392l-215 365l-215 -365h-391z" />
<glyph unicode="y" horiz-adv-x="1204" d="M0 1124h369l202 -637q23 -74 29 -161h6q6 47 15.5 86t19.5 73l203 639h360l-463 -1235q-70 -188 -190.5 -284.5t-308.5 -96.5q-53 0 -91 5.5t-67 11.5v272q23 -4 54.5 -8t66.5 -4q96 0 148.5 57.5t78.5 134.5l12 35z" />
<glyph unicode="z" horiz-adv-x="1017" d="M53 0v201l496 659h-467v264h858v-217l-477 -643h498v-264h-908z" />
<glyph unicode="{" horiz-adv-x="843" d="M45 434v268q111 0 181.5 40t70.5 135v288q0 106 38 174t140.5 101t294.5 33v-250q-49 -2 -90 -10.5t-66.5 -35t-25.5 -81.5v-285q0 -106 -60.5 -162.5t-175.5 -73.5v-12q115 -16 175.5 -72.5t60.5 -160.5v-287q0 -55 25.5 -82t67.5 -35t89 -10v-250q-193 0 -294 32 t-140 100.5t-39 176.5v285q0 96 -71.5 135t-180.5 39z" />
<glyph unicode="|" horiz-adv-x="1089" d="M424 -457v2009h242v-2009h-242z" />
<glyph unicode="}" horiz-adv-x="843" d="M74 -84q47 2 89 10t67.5 35t25.5 82v287q0 104 60.5 160.5t175.5 72.5v12q-115 16 -175.5 73t-60.5 163v285q0 55 -25.5 81.5t-66.5 35t-90 10.5v250q193 0 295 -33t140 -100.5t38 -174.5v-288q0 -94 70.5 -134.5t181.5 -40.5v-268q-109 0 -180.5 -39t-71.5 -135v-285 q0 -109 -39 -177t-140 -100t-294 -32v250z" />
<glyph unicode="~" d="M90 539v256q102 109 260 108q59 0 119.5 -11t159.5 -52q76 -33 131 -44.5t100 -11.5q57 0 118.5 35t115.5 86v-256q-104 -109 -260 -108q-59 0 -120 12t-159 51q-76 33 -131 44t-100 11q-59 0 -121 -34.5t-113 -85.5z" />
<glyph unicode="&#xa1;" horiz-adv-x="589" d="M100 -352l52 960h284l51 -960h-387zM104 954q0 94 56.5 137.5t134.5 43.5q80 0 136 -43.5t56 -137.5q0 -98 -56 -139t-136 -41q-78 0 -134.5 41t-56.5 139z" />
<glyph unicode="&#xa2;" d="M137 741q0 182 53.5 302t149.5 185.5t223 88.5v166h193v-156q94 -4 169.5 -25.5t139.5 -52.5l-100 -260q-72 29 -133.5 47.5t-124.5 18.5q-104 0 -162 -77t-58 -235t59.5 -230.5t162.5 -72.5q90 0 166.5 23.5t154.5 64.5v-280q-63 -35 -128.5 -55.5t-145.5 -28.5v-184 h-193v192q-199 29 -312.5 166t-113.5 403z" />
<glyph unicode="&#xa3;" d="M92 0v279q55 29 93 57.5t58.5 72.5t20.5 117v125h-172v244h172v160q0 154 58.5 248t160 137t228.5 43q111 0 212 -23.5t185 -58.5l-100 -256q-150 59 -265 59q-57 0 -98 -32.5t-41 -122.5v-154h361v-244h-361v-123q0 -104 -51 -157.5t-104 -79.5h698v-291h-1055z" />
<glyph unicode="&#xa4;" horiz-adv-x="1165" d="M104 1034l164 162l125 -125q41 23 90 36t95 13q51 0 97 -13t91 -38l123 127l166 -158l-127 -127q23 -39 35 -88t12 -100q0 -100 -47 -188l123 -123l-162 -160l-123 123q-41 -20 -89 -33.5t-99 -13.5t-99.5 11t-89.5 34l-121 -119l-162 160l125 123q-47 88 -47 186 q0 51 12.5 98t34.5 88zM414 723q0 -70 48 -117t116 -47q70 0 120 47t50 117q0 72 -50.5 119t-119.5 47q-68 0 -116 -47t-48 -119z" />
<glyph unicode="&#xa5;" d="M6 1462h354l232 -557l231 557h353l-373 -731h194v-194h-245v-127h245v-193h-245v-217h-322v217h-248v193h248v127h-248v194h191z" />
<glyph unicode="&#xa6;" horiz-adv-x="1089" d="M424 371h242v-828h-242v828zM424 727v825h242v-825h-242z" />
<glyph unicode="&#xa7;" horiz-adv-x="1007" d="M111 59v226q82 -45 180 -75t172 -30q96 0 132 31t36 78q0 31 -14.5 54.5t-54.5 49t-120 58.5q-102 43 -174.5 89t-112.5 107.5t-40 153.5q0 84 45 144.5t102 96.5q-66 45 -101.5 103.5t-35.5 134.5q0 129 108.5 210t296.5 81q100 0 192.5 -23.5t174.5 -60.5l-90 -205 q-68 33 -138.5 58.5t-142.5 25.5q-135 0 -135 -82q0 -43 44 -79t153 -81q158 -63 239.5 -143t81.5 -190q0 -102 -40 -161t-95 -98q57 -41 91 -97t34 -132q0 -143 -114.5 -234.5t-323.5 -91.5q-106 0 -192.5 21.5t-157.5 60.5zM369 827q0 -55 49 -99t155 -91l19 -10 q23 18 42 49t19 78q0 57 -43 102t-166 92q-29 -12 -52 -44t-23 -77z" />
<glyph unicode="&#xa8;" horiz-adv-x="1239" d="M254 1409q0 76 43 110.5t109 34.5q63 0 109 -34.5t46 -110.5q0 -74 -46 -108.5t-109 -34.5q-66 0 -109 34.5t-43 108.5zM692 1409q0 76 44 110.5t112 34.5q61 0 107 -34.5t46 -110.5q0 -74 -46 -108.5t-107 -34.5q-68 0 -112 34.5t-44 108.5z" />
<glyph unicode="&#xa9;" horiz-adv-x="1695" d="M96 731q0 160 56.5 297t158 238.5t238.5 159t299 57.5q160 0 297 -55.5t238.5 -157t158.5 -238.5t57 -301t-55 -301t-156.5 -238.5t-238.5 -156.5t-301 -55t-301 55t-238.5 156.5t-157 238.5t-55.5 301zM254 731q0 -178 76 -314t210 -214t308 -78q168 0 301 78t211 214 t78 314q0 172 -77 309.5t-210 217t-303 79.5q-172 0 -306 -77.5t-211 -214t-77 -314.5zM436 733q0 137 48 242.5t144.5 165t237.5 59.5q76 0 147.5 -18.5t135.5 -51.5l-74 -167q-51 27 -100 40t-101 13q-100 0 -157.5 -75t-57.5 -210q0 -143 51.5 -215t166.5 -72 q55 0 117.5 15.5t117.5 42.5v-185q-55 -27 -112.5 -41t-133.5 -14q-215 0 -322.5 129t-107.5 342z" />
<glyph unicode="&#xaa;" horiz-adv-x="796" d="M47 971q0 125 91 174t257 57l94 4v13q0 88 -116 88q-49 0 -100.5 -14.5t-112.5 -43.5l-72 148q72 35 148.5 58.5t185.5 23.5q139 0 215 -74t76 -207v-444h-148l-37 118q-43 -66 -101 -98.5t-140 -32.5q-104 0 -172 56.5t-68 173.5zM274 977q0 -35 20.5 -52.5t53.5 -17.5 q68 0 104.5 42t36.5 100v30l-92 -6q-78 -6 -100.5 -33.5t-22.5 -62.5z" />
<glyph unicode="&#xab;" horiz-adv-x="1320" d="M78 553v27l379 469l248 -134l-275 -348l275 -348l-248 -131zM616 553v27l379 469l248 -134l-276 -348l276 -348l-248 -131z" />
<glyph unicode="&#xac;" d="M90 600v244h1004v-600h-244v356h-760z" />
<glyph unicode="&#xad;" horiz-adv-x="655" d="M53 410v278h549v-278h-549z" />
<glyph unicode="&#xae;" horiz-adv-x="1695" d="M96 731q0 160 56.5 297t158 238.5t238.5 159t299 57.5q160 0 297 -55.5t238.5 -157t158.5 -238.5t57 -301t-55 -301t-156.5 -238.5t-238.5 -156.5t-301 -55t-301 55t-238.5 156.5t-157 238.5t-55.5 301zM254 731q0 -178 76 -314t210 -214t308 -78q168 0 301 78t211 214 t78 314q0 172 -77 309.5t-210 217t-303 79.5q-172 0 -306 -77.5t-211 -214t-77 -314.5zM541 297v891h276q188 0 272.5 -70.5t84.5 -202.5q0 -100 -45.5 -155t-106.5 -82l217 -381h-227l-172 332h-86v-332h-213zM754 784h61q143 0 143 125q0 63 -34.5 88t-108.5 25h-61v-238z " />
<glyph unicode="&#xaf;" horiz-adv-x="1024" d="M-6 1556v222h1036v-222h-1036z" />
<glyph unicode="&#xb0;" horiz-adv-x="870" d="M72 1126q0 102 47 183.5t129 127.5t188 46t187.5 -46t127.5 -127t46 -184q0 -104 -46 -184t-127.5 -125t-187.5 -45t-188 45t-129 125t-47 184zM291 1126q0 -66 41 -103.5t104 -37.5q61 0 102.5 38t41.5 103q0 68 -41 107t-103 39q-63 0 -104 -39t-41 -107z" />
<glyph unicode="&#xb1;" d="M90 0v242h1004v-242h-1004zM90 674v244h381v376h242v-376h381v-244h-381v-373h-242v373h-381z" />
<glyph unicode="&#xb2;" horiz-adv-x="794" d="M53 1618q66 57 150 94t203 37q139 0 217.5 -64.5t78.5 -179.5q0 -104 -64.5 -185t-176.5 -179l-86 -76h350v-213h-659v186l219 215q88 88 120.5 135.5t32.5 90.5q0 70 -76 69q-39 0 -80.5 -19.5t-97.5 -68.5z" />
<glyph unicode="&#xb3;" horiz-adv-x="794" d="M61 1636q61 47 142.5 79t185.5 32q139 0 221 -60.5t82 -162.5q0 -74 -39 -126t-127 -83v-10q100 -23 147.5 -78.5t47.5 -132.5q0 -123 -93 -190.5t-274 -67.5q-166 0 -291 69v211q133 -86 283 -86q131 0 131 88q0 35 -28.5 62.5t-122.5 27.5h-109v176h86q94 0 124 29 t30 66q0 33 -22.5 55t-74.5 22q-49 0 -92 -18t-98 -57z" />
<glyph unicode="&#xb4;" horiz-adv-x="794" d="M82 1241v27q33 39 80 91t92 108.5t76 101.5h383v-21q-33 -29 -84 -69.5t-109.5 -85.5t-113 -85t-95.5 -67h-229z" />
<glyph unicode="&#xb5;" horiz-adv-x="1363" d="M147 -492v1616h347v-635q0 -119 38.5 -177t126.5 -58q119 0 164 92t45 266v512h346v-1124h-260l-47 150h-16q-74 -170 -232 -170q-57 0 -99 22.5t-73 65.5h-6q4 -39 8.5 -112t4.5 -128v-320h-347z" />
<glyph unicode="&#xb6;" horiz-adv-x="1329" d="M109 1042q0 195 56 307.5t158.5 159.5t235.5 47h617v-1816h-175v1603h-161v-1603h-176v819q-31 -10 -62 -14t-74 -4q-127 0 -221 47t-146 157.5t-52 296.5z" />
<glyph unicode="&#xb7;" horiz-adv-x="587" d="M102 721q0 100 56.5 140t136.5 40q78 0 133 -40t55 -140q0 -96 -55 -138.5t-133 -42.5q-80 0 -136.5 42.5t-56.5 138.5z" />
<glyph unicode="&#xb8;" horiz-adv-x="497" d="M0 -285q33 -10 69.5 -16t69.5 -6t54.5 14t21.5 45q0 37 -35 61.5t-121 39.5l70 147h195l-23 -61q61 -16 117.5 -60.5t56.5 -128.5q0 -115 -71.5 -178.5t-221.5 -63.5q-57 0 -103 8.5t-79 18.5v180z" />
<glyph unicode="&#xb9;" horiz-adv-x="794" d="M76 1475l319 254h203v-877h-258v405q0 25 2 69t4 86t4 56q-10 -16 -32.5 -38.5l-36.5 -36.5l-80 -64z" />
<glyph unicode="&#xba;" horiz-adv-x="798" d="M53 1110q0 176 93.5 272.5t254.5 96.5q98 0 176 -43t123 -126t45 -200q0 -176 -94 -272.5t-254 -96.5q-152 0 -248 97.5t-96 271.5zM279 1110q0 -186 120 -186q119 0 119 186q0 188 -119 188q-120 0 -120 -188z" />
<glyph unicode="&#xbb;" horiz-adv-x="1320" d="M80 219l274 348l-274 348l248 134l379 -469v-27l-379 -465zM616 219l277 348l-277 348l250 134l377 -469v-27l-377 -465z" />
<glyph unicode="&#xbc;" horiz-adv-x="1753" d="M18 1208l320 254h203v-876h-258v405q0 23 1 63t4 81t5 67q-10 -14 -29.5 -35.5t-38.5 -38.5l-82 -65zM336 0l784 1462h269l-785 -1462h-268zM979 145v170l369 568h262v-553h125v-185h-125v-145h-254v145h-377zM1176 330h180v164q0 80 6 161q-14 -39 -34.5 -81t-35.5 -64z " />
<glyph unicode="&#xbd;" horiz-adv-x="1839" d="M18 1208l320 254h203v-876h-258v405q0 20 2 66.5t4 90.5t4 54q-10 -14 -31.5 -36.5t-40.5 -39.5l-78 -63zM348 0l785 1462h268l-785 -1462h-268zM1098 766q72 66 155.5 98.5t196.5 32.5q137 0 216 -63.5t79 -180.5q0 -88 -45 -157.5t-133 -151.5l-148 -131h348v-213h-659 v186l221 215q88 88 121 134.5t33 91.5q0 70 -78 69q-80 0 -176 -88z" />
<glyph unicode="&#xbe;" horiz-adv-x="1804" d="M88 1370q68 51 147.5 81t180.5 30q135 0 219 -60.5t84 -163.5q0 -74 -39 -126t-127 -82v-11q100 -23 147.5 -78t47.5 -133q0 -121 -93.5 -189.5t-275.5 -68.5q-162 0 -289 70v211q63 -41 132 -63.5t151 -22.5q131 0 131 88q0 41 -34 65.5t-118 24.5h-108v176h86 q88 0 119.5 26.5t31.5 67.5q0 33 -22.5 55.5t-73.5 22.5q-47 0 -90 -17.5t-98 -58.5zM426 0l784 1462h269l-787 -1462h-266zM1028 145v170l369 568h264v-553h125v-185h-125v-145h-256v145h-377zM1225 330h180v164q0 80 6 161q-14 -39 -34.5 -81t-35.5 -64z" />
<glyph unicode="&#xbf;" horiz-adv-x="1003" d="M47 -12q0 123 58.5 207t181.5 168q90 63 121 99t31 91v55h284v-80q0 -96 -40 -165.5t-146 -141.5q-96 -66 -130 -109.5t-34 -99.5q0 -53 44 -82.5t118 -29.5q82 0 168 26.5t178 75.5l123 -244q-104 -59 -226 -96t-268 -37q-219 0 -341 101.5t-122 261.5zM379 954 q0 96 56.5 138.5t132.5 42.5q80 0 136 -42.5t56 -138.5q0 -100 -56 -140t-136 -40q-76 0 -132.5 40t-56.5 140z" />
<glyph unicode="&#xc0;" horiz-adv-x="1447" d="M0 0l498 1468h446l504 -1468h-381l-90 313h-506l-90 -313h-381zM313 1886v21h383q31 -45 77 -101.5t92 -108.5t79 -91v-27h-230q-41 27 -95 67t-112.5 85t-109.5 86t-84 69zM551 604h348l-86 293q-10 37 -27.5 99.5t-35 128t-27.5 110.5q-10 -45 -26.5 -111.5t-33 -129 t-26.5 -97.5z" />
<glyph unicode="&#xc1;" horiz-adv-x="1447" d="M0 0l498 1468h446l504 -1468h-381l-90 313h-506l-90 -313h-381zM531 1579v27q33 39 80 91t92 108.5t76 101.5h383v-21q-33 -29 -84 -69.5t-109.5 -85.5t-113 -85t-95.5 -67h-229zM551 604h348l-86 293q-10 37 -27.5 99.5t-35 128t-27.5 110.5q-10 -45 -26.5 -111.5 t-33 -129t-26.5 -97.5z" />
<glyph unicode="&#xc2;" horiz-adv-x="1447" d="M0 0l498 1468h446l504 -1468h-381l-90 313h-506l-90 -313h-381zM283 1579v27q37 39 86 91t95 108.5t75 101.5h375q29 -45 76 -101.5t96 -109.5t84 -90v-27h-228q-53 33 -108 73t-109 91q-53 -51 -107.5 -91t-107.5 -73h-227zM551 604h348l-86 293q-10 37 -27.5 99.5 t-35 128t-27.5 110.5q-10 -45 -26.5 -111.5t-33 -129t-26.5 -97.5z" />
<glyph unicode="&#xc3;" horiz-adv-x="1447" d="M0 0l498 1468h446l504 -1468h-381l-90 313h-506l-90 -313h-381zM303 1577q12 172 84 248t178 76q53 0 108.5 -26t108.5 -50.5t105 -24.5q25 0 50 22.5t36 80.5h166q-12 -170 -86 -247t-175 -77q-57 0 -113.5 24.5t-109.5 50t-102 25.5q-25 0 -49.5 -21.5t-36.5 -80.5 h-164zM551 604h348l-86 293q-10 37 -27.5 99.5t-35 128t-27.5 110.5q-10 -45 -26.5 -111.5t-33 -129t-26.5 -97.5z" />
<glyph unicode="&#xc4;" horiz-adv-x="1447" d="M0 0l498 1468h446l504 -1468h-381l-90 313h-506l-90 -313h-381zM350 1747q0 76 43 110.5t109 34.5q63 0 109 -34.5t46 -110.5q0 -74 -46 -108.5t-109 -34.5q-66 0 -109 34.5t-43 108.5zM551 604h348l-86 293q-10 37 -27.5 99.5t-35 128t-27.5 110.5q-10 -45 -26.5 -111.5 t-33 -129t-26.5 -97.5zM788 1747q0 76 44 110.5t112 34.5q61 0 107 -34.5t46 -110.5q0 -74 -46 -108.5t-107 -34.5q-68 0 -112 34.5t-44 108.5z" />
<glyph unicode="&#xc5;" horiz-adv-x="1447" d="M0 0l498 1468h446l504 -1468h-381l-90 313h-506l-90 -313h-381zM465 1561q0 115 70.5 179t185.5 64q109 0 185.5 -64.5t76.5 -176.5q0 -115 -75.5 -180.5t-186.5 -65.5q-115 0 -185.5 64.5t-70.5 179.5zM551 604h348l-86 293q-10 37 -27.5 99.5t-35 128t-27.5 110.5 q-10 -45 -26.5 -111.5t-33 -129t-26.5 -97.5zM629 1561q0 -41 23.5 -65.5t68.5 -24.5q39 0 64.5 24.5t25.5 65.5t-25.5 65.5t-64.5 24.5t-65.5 -24.5t-26.5 -65.5z" />
<glyph unicode="&#xc6;" horiz-adv-x="1943" d="M-4 0l643 1462h1194v-282h-520v-281h485v-283h-485v-329h520v-287h-870v313h-467l-127 -313h-373zM612 606h351v559h-121z" />
<glyph unicode="&#xc7;" horiz-adv-x="1316" d="M113 729q0 221 80.5 391t236.5 266.5t379 96.5q109 0 221.5 -25.5t216.5 -77.5l-108 -278q-82 39 -164 65.5t-168 26.5q-162 0 -249 -124t-87 -343q0 -223 84 -341t262 -118q92 0 182.5 23.5t190.5 60.5v-295q-96 -41 -194.5 -59t-213.5 -18q-233 0 -380.5 94t-218 262 t-70.5 393zM528 -285q33 -10 69.5 -16t69.5 -6t54.5 14t21.5 45q0 37 -35 61.5t-121 39.5l70 147h195l-23 -61q61 -16 117.5 -60.5t56.5 -128.5q0 -115 -71.5 -178.5t-221.5 -63.5q-57 0 -103 8.5t-79 18.5v180z" />
<glyph unicode="&#xc8;" horiz-adv-x="1136" d="M172 0v1462h854v-282h-506v-281h469v-283h-469v-329h506v-287h-854zM195 1886v21h383q31 -45 77 -101.5t92 -108.5t79 -91v-27h-230q-41 27 -95 67t-112.5 85t-109.5 86t-84 69z" />
<glyph unicode="&#xc9;" horiz-adv-x="1136" d="M172 0v1462h854v-282h-506v-281h469v-283h-469v-329h506v-287h-854zM412 1579v27q33 39 80 91t92 108.5t76 101.5h383v-21q-33 -29 -84 -69.5t-109.5 -85.5t-113 -85t-95.5 -67h-229z" />
<glyph unicode="&#xca;" horiz-adv-x="1136" d="M164 1579v27q37 39 86 91t95 108.5t75 101.5h375q29 -45 76 -101.5t96 -109.5t84 -90v-27h-228q-53 33 -108 73t-109 91q-53 -51 -107.5 -91t-107.5 -73h-227zM172 0v1462h854v-282h-506v-281h469v-283h-469v-329h506v-287h-854z" />
<glyph unicode="&#xcb;" horiz-adv-x="1136" d="M172 0v1462h854v-282h-506v-281h469v-283h-469v-329h506v-287h-854zM231 1747q0 76 43 110.5t109 34.5q63 0 109 -34.5t46 -110.5q0 -74 -46 -108.5t-109 -34.5q-66 0 -109 34.5t-43 108.5zM669 1747q0 76 44 110.5t112 34.5q61 0 107 -34.5t46 -110.5q0 -74 -46 -108.5 t-107 -34.5q-68 0 -112 34.5t-44 108.5z" />
<glyph unicode="&#xcc;" horiz-adv-x="845" d="M12 1886v21h383q31 -45 77 -101.5t92 -108.5t79 -91v-27h-230q-41 27 -95 67t-112.5 85t-109.5 86t-84 69zM68 0v199l180 75v914l-180 76v198h710v-198l-180 -76v-914l180 -75v-199h-710z" />
<glyph unicode="&#xcd;" horiz-adv-x="845" d="M68 0v199l180 75v914l-180 76v198h710v-198l-180 -76v-914l180 -75v-199h-710zM229 1579v27q33 39 80 91t92 108.5t76 101.5h383v-21q-33 -29 -84 -69.5t-109.5 -85.5t-113 -85t-95.5 -67h-229z" />
<glyph unicode="&#xce;" horiz-adv-x="845" d="M-18 1579v27q37 39 86 91t95 108.5t75 101.5h375q29 -45 76 -101.5t96 -109.5t84 -90v-27h-228q-53 33 -108 73t-109 91q-53 -51 -107.5 -91t-107.5 -73h-227zM68 0v199l180 75v914l-180 76v198h710v-198l-180 -76v-914l180 -75v-199h-710z" />
<glyph unicode="&#xcf;" horiz-adv-x="845" d="M49 1747q0 76 43 110.5t109 34.5q63 0 109 -34.5t46 -110.5q0 -74 -46 -108.5t-109 -34.5q-66 0 -109 34.5t-43 108.5zM68 0v199l180 75v914l-180 76v198h710v-198l-180 -76v-914l180 -75v-199h-710zM487 1747q0 76 44 110.5t112 34.5q61 0 107 -34.5t46 -110.5 q0 -74 -46 -108.5t-107 -34.5q-68 0 -112 34.5t-44 108.5z" />
<glyph unicode="&#xd0;" horiz-adv-x="1509" d="M39 582v282h133v598h481q346 0 545 -181t199 -527q0 -377 -209 -565.5t-576 -188.5h-440v582h-133zM520 287h113q403 0 403 454q0 223 -96 330t-278 107h-142v-314h225v-282h-225v-295z" />
<glyph unicode="&#xd1;" horiz-adv-x="1685" d="M172 0v1462h449l587 -1059h6q-2 37 -5 100.5t-6 138.5t-3 142v678h313v-1462h-450l-590 1071h-8q2 -39 5 -104.5t7 -142t6 -148.5v-676h-311zM424 1577q12 172 84 248t178 76q53 0 108.5 -26t108.5 -50.5t105 -24.5q25 0 50 22.5t36 80.5h166q-12 -170 -86 -247t-175 -77 q-57 0 -113.5 24.5t-109.5 50t-102 25.5q-25 0 -49.5 -21.5t-36.5 -80.5h-164z" />
<glyph unicode="&#xd2;" horiz-adv-x="1630" d="M113 735q0 227 74.5 395t230 261.5t399.5 93.5t398.5 -93.5t228.5 -262.5t74 -396t-74 -396t-228.5 -263t-400.5 -94q-242 0 -397.5 94t-230 264t-74.5 397zM406 1886v21h383q31 -45 77 -101.5t92 -108.5t79 -91v-27h-230q-41 27 -95 67t-112.5 85t-109.5 86t-84 69z M479 733q0 -215 79 -338t257 -123q180 0 258 123t78 338t-77 339t-257 124t-259 -124t-79 -339z" />
<glyph unicode="&#xd3;" horiz-adv-x="1630" d="M113 735q0 227 74.5 395t230 261.5t399.5 93.5t398.5 -93.5t228.5 -262.5t74 -396t-74 -396t-228.5 -263t-400.5 -94q-242 0 -397.5 94t-230 264t-74.5 397zM479 733q0 -215 79 -338t257 -123q180 0 258 123t78 338t-77 339t-257 124t-259 -124t-79 -339zM623 1579v27 q33 39 80 91t92 108.5t76 101.5h383v-21q-33 -29 -84 -69.5t-109.5 -85.5t-113 -85t-95.5 -67h-229z" />
<glyph unicode="&#xd4;" horiz-adv-x="1630" d="M113 735q0 227 74.5 395t230 261.5t399.5 93.5t398.5 -93.5t228.5 -262.5t74 -396t-74 -396t-228.5 -263t-400.5 -94q-242 0 -397.5 94t-230 264t-74.5 397zM375 1579v27q37 39 86 91t95 108.5t75 101.5h375q29 -45 76 -101.5t96 -109.5t84 -90v-27h-228q-53 33 -108 73 t-109 91q-53 -51 -107.5 -91t-107.5 -73h-227zM479 733q0 -215 79 -338t257 -123q180 0 258 123t78 338t-77 339t-257 124t-259 -124t-79 -339z" />
<glyph unicode="&#xd5;" horiz-adv-x="1630" d="M113 735q0 227 74.5 395t230 261.5t399.5 93.5t398.5 -93.5t228.5 -262.5t74 -396t-74 -396t-228.5 -263t-400.5 -94q-242 0 -397.5 94t-230 264t-74.5 397zM397 1577q12 172 84 248t178 76q53 0 108.5 -26t108.5 -50.5t105 -24.5q25 0 50 22.5t36 80.5h166 q-12 -170 -86 -247t-175 -77q-57 0 -113.5 24.5t-109.5 50t-102 25.5q-25 0 -49.5 -21.5t-36.5 -80.5h-164zM479 733q0 -215 79 -338t257 -123q180 0 258 123t78 338t-77 339t-257 124t-259 -124t-79 -339z" />
<glyph unicode="&#xd6;" horiz-adv-x="1630" d="M113 735q0 227 74.5 395t230 261.5t399.5 93.5t398.5 -93.5t228.5 -262.5t74 -396t-74 -396t-228.5 -263t-400.5 -94q-242 0 -397.5 94t-230 264t-74.5 397zM442 1747q0 76 43 110.5t109 34.5q63 0 109 -34.5t46 -110.5q0 -74 -46 -108.5t-109 -34.5q-66 0 -109 34.5 t-43 108.5zM479 733q0 -215 79 -338t257 -123q180 0 258 123t78 338t-77 339t-257 124t-259 -124t-79 -339zM880 1747q0 76 44 110.5t112 34.5q61 0 107 -34.5t46 -110.5q0 -74 -46 -108.5t-107 -34.5q-68 0 -112 34.5t-44 108.5z" />
<glyph unicode="&#xd7;" d="M135 1010l166 168l287 -283l291 283l170 -164l-291 -291l286 -289l-165 -166l-291 287l-287 -285l-164 166l281 287z" />
<glyph unicode="&#xd8;" horiz-adv-x="1630" d="M113 735q0 227 74.5 395t230 261.5t399.5 93.5q100 0 184 -16.5t154 -47.5l80 123l174 -108l-86 -129q100 -98 147.5 -246t47.5 -328q0 -227 -74 -396t-228.5 -263t-400.5 -94q-184 0 -323 55l-86 -133l-177 116l88 129q-106 100 -155 250t-49 338zM479 733 q0 -82 10.5 -151.5t32.5 -124.5l459 702q-35 16 -76 26.5t-88 10.5q-180 0 -259 -124t-79 -339zM664 299q33 -12 69.5 -19.5t81.5 -7.5q180 0 258 123t78 338q0 154 -37 258z" />
<glyph unicode="&#xd9;" horiz-adv-x="1548" d="M162 545v917h350v-878q0 -170 66.5 -241t197.5 -71q137 0 199.5 75t62.5 239v876h348v-915q0 -166 -67.5 -294t-205.5 -200.5t-345 -72.5q-295 0 -450.5 151.5t-155.5 413.5zM365 1886v21h383q31 -45 77 -101.5t92 -108.5t79 -91v-27h-230q-41 27 -95 67t-112.5 85 t-109.5 86t-84 69z" />
<glyph unicode="&#xda;" horiz-adv-x="1548" d="M162 545v917h350v-878q0 -170 66.5 -241t197.5 -71q137 0 199.5 75t62.5 239v876h348v-915q0 -166 -67.5 -294t-205.5 -200.5t-345 -72.5q-295 0 -450.5 151.5t-155.5 413.5zM582 1579v27q33 39 80 91t92 108.5t76 101.5h383v-21q-33 -29 -84 -69.5t-109.5 -85.5 t-113 -85t-95.5 -67h-229z" />
<glyph unicode="&#xdb;" horiz-adv-x="1548" d="M162 545v917h350v-878q0 -170 66.5 -241t197.5 -71q137 0 199.5 75t62.5 239v876h348v-915q0 -166 -67.5 -294t-205.5 -200.5t-345 -72.5q-295 0 -450.5 151.5t-155.5 413.5zM334 1579v27q37 39 86 91t95 108.5t75 101.5h375q29 -45 76 -101.5t96 -109.5t84 -90v-27h-228 q-53 33 -108 73t-109 91q-53 -51 -107.5 -91t-107.5 -73h-227z" />
<glyph unicode="&#xdc;" horiz-adv-x="1548" d="M162 545v917h350v-878q0 -170 66.5 -241t197.5 -71q137 0 199.5 75t62.5 239v876h348v-915q0 -166 -67.5 -294t-205.5 -200.5t-345 -72.5q-295 0 -450.5 151.5t-155.5 413.5zM401 1747q0 76 43 110.5t109 34.5q63 0 109 -34.5t46 -110.5q0 -74 -46 -108.5t-109 -34.5 q-66 0 -109 34.5t-43 108.5zM839 1747q0 76 44 110.5t112 34.5q61 0 107 -34.5t46 -110.5q0 -74 -46 -108.5t-107 -34.5q-68 0 -112 34.5t-44 108.5z" />
<glyph unicode="&#xdd;" horiz-adv-x="1314" d="M0 1462h379l278 -575l281 575h377l-484 -893v-569h-348v559zM465 1579v27q33 39 80 91t92 108.5t76 101.5h383v-21q-33 -29 -84 -69.5t-109.5 -85.5t-113 -85t-95.5 -67h-229z" />
<glyph unicode="&#xde;" horiz-adv-x="1286" d="M172 0v1462h348v-221h148q274 0 406 -124t132 -341q0 -129 -52 -241.5t-173 -182t-326 -69.5h-135v-283h-348zM520 567h88q113 0 178.5 48.5t65.5 160.5q0 88 -51 134t-166 46h-115v-389z" />
<glyph unicode="&#xdf;" horiz-adv-x="1492" d="M147 0v1120q0 150 76 248t207 148.5t297 50.5q162 0 290 -40t200.5 -117.5t72.5 -192.5q0 -72 -27.5 -126.5t-69.5 -95.5t-84 -71.5t-69.5 -54t-27.5 -46.5q0 -41 53 -69.5t160 -100.5q100 -63 151 -133.5t51 -189.5q0 -172 -116.5 -261t-339.5 -89q-117 0 -195 14 t-141 47v264q33 -20 82 -38.5t102 -31t96 -12.5q72 0 114 25.5t42 79.5q0 29 -13.5 52t-53 52t-121.5 74q-125 70 -174.5 128t-49.5 140q0 63 28 108.5t70 78t84 62.5t69.5 64.5t27.5 81.5q0 59 -58.5 95t-152.5 36q-111 0 -172 -52t-61 -152v-1096h-347z" />
<glyph unicode="&#xe0;" horiz-adv-x="1255" d="M80 340q0 180 126 266t369 96l193 7v32q0 82 -42 119t-116 37q-76 0 -154.5 -23.5t-160.5 -58.5l-105 229q92 49 209 76t252 27q219 0 340 -101.5t121 -300.5v-745h-240l-67 152h-8q-72 -90 -152 -131t-219 -41q-150 0 -248 88t-98 272zM217 1548v21h383 q31 -45 77 -101.5t92 -108.5t79 -91v-27h-230q-41 27 -95 67t-112.5 85t-109.5 86t-84 69zM432 348q0 -66 36 -93.5t95 -27.5q86 0 145.5 52.5t59.5 142.5v90l-104 -4q-129 -4 -180.5 -46t-51.5 -114z" />
<glyph unicode="&#xe1;" horiz-adv-x="1255" d="M80 340q0 180 126 266t369 96l193 7v32q0 82 -42 119t-116 37q-76 0 -154.5 -23.5t-160.5 -58.5l-105 229q92 49 209 76t252 27q219 0 340 -101.5t121 -300.5v-745h-240l-67 152h-8q-72 -90 -152 -131t-219 -41q-150 0 -248 88t-98 272zM432 348q0 -66 36 -93.5t95 -27.5 q86 0 145.5 52.5t59.5 142.5v90l-104 -4q-129 -4 -180.5 -46t-51.5 -114zM434 1241v27q33 39 80 91t92 108.5t76 101.5h383v-21q-33 -29 -84 -69.5t-109.5 -85.5t-113 -85t-95.5 -67h-229z" />
<glyph unicode="&#xe2;" horiz-adv-x="1255" d="M80 340q0 180 126 266t369 96l193 7v32q0 82 -42 119t-116 37q-76 0 -154.5 -23.5t-160.5 -58.5l-105 229q92 49 209 76t252 27q219 0 340 -101.5t121 -300.5v-745h-240l-67 152h-8q-72 -90 -152 -131t-219 -41q-150 0 -248 88t-98 272zM186 1241v27q37 39 86 91 t95 108.5t75 101.5h375q29 -45 76 -101.5t96 -109.5t84 -90v-27h-228q-53 33 -108 73t-109 91q-53 -51 -107.5 -91t-107.5 -73h-227zM432 348q0 -66 36 -93.5t95 -27.5q86 0 145.5 52.5t59.5 142.5v90l-104 -4q-129 -4 -180.5 -46t-51.5 -114z" />
<glyph unicode="&#xe3;" horiz-adv-x="1255" d="M80 340q0 180 126 266t369 96l193 7v32q0 82 -42 119t-116 37q-76 0 -154.5 -23.5t-160.5 -58.5l-105 229q92 49 209 76t252 27q219 0 340 -101.5t121 -300.5v-745h-240l-67 152h-8q-72 -90 -152 -131t-219 -41q-150 0 -248 88t-98 272zM209 1239q12 172 84 248t178 76 q53 0 108.5 -26t108.5 -50.5t105 -24.5q25 0 50 22.5t36 80.5h166q-12 -170 -86 -247t-175 -77q-57 0 -113.5 24.5t-109.5 50t-102 25.5q-25 0 -49.5 -21.5t-36.5 -80.5h-164zM432 348q0 -66 36 -93.5t95 -27.5q86 0 145.5 52.5t59.5 142.5v90l-104 -4q-129 -4 -180.5 -46 t-51.5 -114z" />
<glyph unicode="&#xe4;" horiz-adv-x="1255" d="M80 340q0 180 126 266t369 96l193 7v32q0 82 -42 119t-116 37q-76 0 -154.5 -23.5t-160.5 -58.5l-105 229q92 49 209 76t252 27q219 0 340 -101.5t121 -300.5v-745h-240l-67 152h-8q-72 -90 -152 -131t-219 -41q-150 0 -248 88t-98 272zM254 1409q0 76 43 110.5t109 34.5 q63 0 109 -34.5t46 -110.5q0 -74 -46 -108.5t-109 -34.5q-66 0 -109 34.5t-43 108.5zM432 348q0 -66 36 -93.5t95 -27.5q86 0 145.5 52.5t59.5 142.5v90l-104 -4q-129 -4 -180.5 -46t-51.5 -114zM692 1409q0 76 44 110.5t112 34.5q61 0 107 -34.5t46 -110.5 q0 -74 -46 -108.5t-107 -34.5q-68 0 -112 34.5t-44 108.5z" />
<glyph unicode="&#xe5;" horiz-adv-x="1255" d="M80 340q0 180 126 266t369 96l193 7v32q0 82 -42 119t-116 37q-76 0 -154.5 -23.5t-160.5 -58.5l-105 229q92 49 209 76t252 27q219 0 340 -101.5t121 -300.5v-745h-240l-67 152h-8q-72 -90 -152 -131t-219 -41q-150 0 -248 88t-98 272zM373 1483q0 115 70.5 179 t185.5 64q109 0 185.5 -64.5t76.5 -176.5q0 -115 -75.5 -180.5t-186.5 -65.5q-115 0 -185.5 64.5t-70.5 179.5zM432 348q0 -66 36 -93.5t95 -27.5q86 0 145.5 52.5t59.5 142.5v90l-104 -4q-129 -4 -180.5 -46t-51.5 -114zM537 1483q0 -41 23.5 -65.5t68.5 -24.5 q39 0 64.5 24.5t25.5 65.5t-25.5 65.5t-64.5 24.5t-65.5 -24.5t-26.5 -65.5z" />
<glyph unicode="&#xe6;" horiz-adv-x="1894" d="M80 342q0 182 129 266t360 94l189 7v53q0 74 -43 104.5t-109 30.5q-76 0 -154.5 -21.5t-154.5 -56.5l-104 228q92 47 203.5 73.5t232.5 26.5q217 0 340 -115q68 57 151.5 85t204.5 28q141 0 249.5 -58.5t171 -173t62.5 -282.5v-158h-710q4 -109 73.5 -175.5t196.5 -66.5 q90 0 184.5 19.5t188.5 66.5v-256q-84 -43 -175 -62t-231 -19q-133 0 -245.5 49t-186.5 149q-63 -72 -124.5 -116t-141.5 -63t-199 -19q-94 0 -176 38.5t-132 118.5t-50 205zM434 344q0 -66 35 -91.5t92 -25.5q82 0 139.5 52.5t57.5 142.5v90l-99 -4q-129 -4 -177 -48 t-48 -116zM1104 696h387q-2 88 -47 148.5t-133 60.5t-143.5 -49t-63.5 -160z" />
<glyph unicode="&#xe7;" horiz-adv-x="1077" d="M90 557q0 205 74 335t202 191.5t293 61.5q111 0 199 -22.5t160 -57.5l-100 -260q-72 29 -133.5 47t-125.5 18q-106 0 -162.5 -76.5t-56.5 -234.5t59.5 -230.5t162.5 -72.5q88 0 167.5 25.5t151.5 72.5v-282q-72 -47 -152.5 -69.5t-197.5 -22.5q-254 0 -397.5 138 t-143.5 439zM381 -285q33 -10 69.5 -16t69.5 -6t54.5 14t21.5 45q0 37 -35 61.5t-121 39.5l70 147h195l-23 -61q61 -16 117.5 -60.5t56.5 -128.5q0 -115 -71.5 -178.5t-221.5 -63.5q-57 0 -103 8.5t-79 18.5v180z" />
<glyph unicode="&#xe8;" horiz-adv-x="1234" d="M90 555q0 299 149.5 444.5t393.5 145.5q238 0 377 -130t139 -382v-160h-711q4 -111 72 -176.5t192 -65.5q109 0 197 20.5t182 65.5v-256q-82 -43 -176 -62t-231 -19q-170 0 -302 61t-207 188t-75 326zM209 1548v21h383q31 -45 77 -101.5t92 -108.5t79 -91v-27h-230 q-41 27 -95 67t-112.5 85t-109.5 86t-84 69zM444 696h387q-2 90 -50 149.5t-142 59.5q-80 0 -132 -51t-63 -158z" />
<glyph unicode="&#xe9;" horiz-adv-x="1234" d="M90 555q0 299 149.5 444.5t393.5 145.5q238 0 377 -130t139 -382v-160h-711q4 -111 72 -176.5t192 -65.5q109 0 197 20.5t182 65.5v-256q-82 -43 -176 -62t-231 -19q-170 0 -302 61t-207 188t-75 326zM424 1241v27q33 39 80 91t92 108.5t76 101.5h383v-21 q-33 -29 -84 -69.5t-109.5 -85.5t-113 -85t-95.5 -67h-229zM444 696h387q-2 90 -50 149.5t-142 59.5q-80 0 -132 -51t-63 -158z" />
<glyph unicode="&#xea;" horiz-adv-x="1234" d="M90 555q0 299 149.5 444.5t393.5 145.5q238 0 377 -130t139 -382v-160h-711q4 -111 72 -176.5t192 -65.5q109 0 197 20.5t182 65.5v-256q-82 -43 -176 -62t-231 -19q-170 0 -302 61t-207 188t-75 326zM178 1241v27q37 39 86 91t95 108.5t75 101.5h375q29 -45 76 -101.5 t96 -109.5t84 -90v-27h-228q-53 33 -108 73t-109 91q-53 -51 -107.5 -91t-107.5 -73h-227zM444 696h387q-2 90 -50 149.5t-142 59.5q-80 0 -132 -51t-63 -158z" />
<glyph unicode="&#xeb;" horiz-adv-x="1234" d="M90 555q0 299 149.5 444.5t393.5 145.5q238 0 377 -130t139 -382v-160h-711q4 -111 72 -176.5t192 -65.5q109 0 197 20.5t182 65.5v-256q-82 -43 -176 -62t-231 -19q-170 0 -302 61t-207 188t-75 326zM244 1409q0 76 43 110.5t109 34.5q63 0 109 -34.5t46 -110.5 q0 -74 -46 -108.5t-109 -34.5q-66 0 -109 34.5t-43 108.5zM444 696h387q-2 90 -50 149.5t-142 59.5q-80 0 -132 -51t-63 -158zM682 1409q0 76 44 110.5t112 34.5q61 0 107 -34.5t46 -110.5q0 -74 -46 -108.5t-107 -34.5q-68 0 -112 34.5t-44 108.5z" />
<glyph unicode="&#xec;" horiz-adv-x="643" d="M-88 1548v21h383q31 -45 77 -101.5t92 -108.5t79 -91v-27h-230q-41 27 -95 67t-112.5 85t-109.5 86t-84 69zM150 0v1124h344v-1124h-344z" />
<glyph unicode="&#xed;" horiz-adv-x="643" d="M129 1241v27q33 39 80 91t92 108.5t76 101.5h383v-21q-33 -29 -84 -69.5t-109.5 -85.5t-113 -85t-95.5 -67h-229zM150 0v1124h344v-1124h-344z" />
<glyph unicode="&#xee;" horiz-adv-x="643" d="M-119 1241v27q37 39 86 91t95 108.5t75 101.5h375q29 -45 76 -101.5t96 -109.5t84 -90v-27h-228q-53 33 -108 73t-109 91q-53 -51 -107.5 -91t-107.5 -73h-227zM150 0v1124h344v-1124h-344z" />
<glyph unicode="&#xef;" horiz-adv-x="643" d="M-51 1409q0 76 43 110.5t109 34.5q63 0 109 -34.5t46 -110.5q0 -74 -46 -108.5t-109 -34.5q-66 0 -109 34.5t-43 108.5zM150 0v1124h344v-1124h-344zM387 1409q0 76 44 110.5t112 34.5q61 0 107 -34.5t46 -110.5q0 -74 -46 -108.5t-107 -34.5q-68 0 -112 34.5t-44 108.5z " />
<glyph unicode="&#xf0;" horiz-adv-x="1288" d="M90 494q0 166 62.5 279.5t171 172t247.5 58.5q100 0 164 -23t96 -70l9 4q-33 72 -73 130.5t-97 115.5l-209 -131l-107 168l160 100q-66 43 -149 93l104 178q74 -33 139.5 -67t120.5 -70l219 137l107 -166l-158 -100q145 -139 221 -312.5t76 -415.5q0 -186 -67.5 -320 t-192.5 -204.5t-295 -70.5q-160 0 -284 59t-194.5 174t-70.5 281zM442 494q0 -119 47.5 -192t153.5 -73t152.5 77t46.5 233q0 84 -48.5 149.5t-150.5 65.5q-109 0 -155 -63.5t-46 -196.5z" />
<glyph unicode="&#xf1;" horiz-adv-x="1357" d="M147 0v1124h263l47 -145h16q53 82 142 124t202 42q178 0 287.5 -97.5t109.5 -314.5v-733h-344v637q0 117 -38.5 176t-122.5 59q-127 0 -171 -93t-44 -267v-512h-347zM260 1239q12 172 84 248t178 76q53 0 108.5 -26t108.5 -50.5t105 -24.5q25 0 50 22.5t36 80.5h166 q-12 -170 -86 -247t-175 -77q-57 0 -113.5 24.5t-109.5 50t-102 25.5q-25 0 -49.5 -21.5t-36.5 -80.5h-164z" />
<glyph unicode="&#xf2;" horiz-adv-x="1284" d="M90 565q0 279 147.5 429.5t407.5 150.5q160 0 284 -67.5t194.5 -197t70.5 -315.5q0 -283 -148.5 -434t-406.5 -151q-160 0 -284 67.5t-194.5 198.5t-70.5 319zM234 1548v21h383q31 -45 77 -101.5t92 -108.5t79 -91v-27h-230q-41 27 -95 67t-112.5 85t-109.5 86t-84 69z M440 565q0 -156 47.5 -237.5t155.5 -81.5q106 0 153.5 82t47.5 237q0 156 -47 235t-156 79q-106 0 -153.5 -79t-47.5 -235z" />
<glyph unicode="&#xf3;" horiz-adv-x="1284" d="M90 565q0 279 147.5 429.5t407.5 150.5q160 0 284 -67.5t194.5 -197t70.5 -315.5q0 -283 -148.5 -434t-406.5 -151q-160 0 -284 67.5t-194.5 198.5t-70.5 319zM440 565q0 -156 47.5 -237.5t155.5 -81.5q106 0 153.5 82t47.5 237q0 156 -47 235t-156 79q-106 0 -153.5 -79 t-47.5 -235zM451 1241v27q33 39 80 91t92 108.5t76 101.5h383v-21q-33 -29 -84 -69.5t-109.5 -85.5t-113 -85t-95.5 -67h-229z" />
<glyph unicode="&#xf4;" horiz-adv-x="1284" d="M90 565q0 279 147.5 429.5t407.5 150.5q160 0 284 -67.5t194.5 -197t70.5 -315.5q0 -283 -148.5 -434t-406.5 -151q-160 0 -284 67.5t-194.5 198.5t-70.5 319zM203 1241v27q37 39 86 91t95 108.5t75 101.5h375q29 -45 76 -101.5t96 -109.5t84 -90v-27h-228 q-53 33 -108 73t-109 91q-53 -51 -107.5 -91t-107.5 -73h-227zM440 565q0 -156 47.5 -237.5t155.5 -81.5q106 0 153.5 82t47.5 237q0 156 -47 235t-156 79q-106 0 -153.5 -79t-47.5 -235z" />
<glyph unicode="&#xf5;" horiz-adv-x="1284" d="M90 565q0 279 147.5 429.5t407.5 150.5q160 0 284 -67.5t194.5 -197t70.5 -315.5q0 -283 -148.5 -434t-406.5 -151q-160 0 -284 67.5t-194.5 198.5t-70.5 319zM223 1239q12 172 84 248t178 76q53 0 108.5 -26t108.5 -50.5t105 -24.5q25 0 50 22.5t36 80.5h166 q-12 -170 -86 -247t-175 -77q-57 0 -113.5 24.5t-109.5 50t-102 25.5q-25 0 -49.5 -21.5t-36.5 -80.5h-164zM440 565q0 -156 47.5 -237.5t155.5 -81.5q106 0 153.5 82t47.5 237q0 156 -47 235t-156 79q-106 0 -153.5 -79t-47.5 -235z" />
<glyph unicode="&#xf6;" horiz-adv-x="1284" d="M90 565q0 279 147.5 429.5t407.5 150.5q160 0 284 -67.5t194.5 -197t70.5 -315.5q0 -283 -148.5 -434t-406.5 -151q-160 0 -284 67.5t-194.5 198.5t-70.5 319zM268 1409q0 76 43 110.5t109 34.5q63 0 109 -34.5t46 -110.5q0 -74 -46 -108.5t-109 -34.5q-66 0 -109 34.5 t-43 108.5zM440 565q0 -156 47.5 -237.5t155.5 -81.5q106 0 153.5 82t47.5 237q0 156 -47 235t-156 79q-106 0 -153.5 -79t-47.5 -235zM706 1409q0 76 44 110.5t112 34.5q61 0 107 -34.5t46 -110.5q0 -74 -46 -108.5t-107 -34.5q-68 0 -112 34.5t-44 108.5z" />
<glyph unicode="&#xf7;" d="M90 600v244h1004v-244h-1004zM444 354q0 88 43 124t103 36q57 0 102 -36t45 -124q0 -84 -45 -121.5t-102 -37.5q-59 0 -102.5 37.5t-43.5 121.5zM444 1090q0 90 43 124.5t103 34.5q57 0 102 -34.5t45 -124.5q0 -84 -45 -122t-102 -38q-59 0 -102.5 38t-43.5 122z" />
<glyph unicode="&#xf8;" horiz-adv-x="1310" d="M90 565q0 279 151.5 429.5t417.5 150.5q127 0 240 -45l64 94l159 -107l-63 -92q76 -74 119 -182.5t43 -247.5q0 -283 -153 -434t-415 -151q-125 0 -231 40l-76 -114l-162 104l74 111q-80 76 -124 187.5t-44 256.5zM430 565q0 -45 4 -84t12 -73l304 462q-41 18 -95 19 q-121 0 -173 -81t-52 -243zM571 248q18 -6 40 -8t46 -2q123 0 173.5 82.5t50.5 244.5q0 76 -13 137z" />
<glyph unicode="&#xf9;" horiz-adv-x="1357" d="M143 391v733h346v-637q0 -115 38 -174t122 -59q125 0 170 92t45 266v512h346v-1124h-262l-45 143h-20q-53 -86 -145.5 -124.5t-196.5 -38.5q-174 0 -286 97t-112 314zM270 1548v21h383q31 -45 77 -101.5t92 -108.5t79 -91v-27h-230q-41 27 -95 67t-112.5 85t-109.5 86 t-84 69z" />
<glyph unicode="&#xfa;" horiz-adv-x="1357" d="M143 391v733h346v-637q0 -115 38 -174t122 -59q125 0 170 92t45 266v512h346v-1124h-262l-45 143h-20q-53 -86 -145.5 -124.5t-196.5 -38.5q-174 0 -286 97t-112 314zM485 1241v27q33 39 80 91t92 108.5t76 101.5h383v-21q-33 -29 -84 -69.5t-109.5 -85.5t-113 -85 t-95.5 -67h-229z" />
<glyph unicode="&#xfb;" horiz-adv-x="1357" d="M143 391v733h346v-637q0 -115 38 -174t122 -59q125 0 170 92t45 266v512h346v-1124h-262l-45 143h-20q-53 -86 -145.5 -124.5t-196.5 -38.5q-174 0 -286 97t-112 314zM240 1241v27q37 39 86 91t95 108.5t75 101.5h375q29 -45 76 -101.5t96 -109.5t84 -90v-27h-228 q-53 33 -108 73t-109 91q-53 -51 -107.5 -91t-107.5 -73h-227z" />
<glyph unicode="&#xfc;" horiz-adv-x="1357" d="M143 391v733h346v-637q0 -115 38 -174t122 -59q125 0 170 92t45 266v512h346v-1124h-262l-45 143h-20q-53 -86 -145.5 -124.5t-196.5 -38.5q-174 0 -286 97t-112 314zM305 1409q0 76 43 110.5t109 34.5q63 0 109 -34.5t46 -110.5q0 -74 -46 -108.5t-109 -34.5 q-66 0 -109 34.5t-43 108.5zM743 1409q0 76 44 110.5t112 34.5q61 0 107 -34.5t46 -110.5q0 -74 -46 -108.5t-107 -34.5q-68 0 -112 34.5t-44 108.5z" />
<glyph unicode="&#xfd;" horiz-adv-x="1204" d="M0 1124h369l202 -637q23 -74 29 -161h6q6 47 15.5 86t19.5 73l203 639h360l-463 -1235q-70 -188 -190.5 -284.5t-308.5 -96.5q-53 0 -91 5.5t-67 11.5v272q23 -4 54.5 -8t66.5 -4q96 0 148.5 57.5t78.5 134.5l12 35zM410 1241v27q33 39 80 91t92 108.5t76 101.5h383v-21 q-33 -29 -84 -69.5t-109.5 -85.5t-113 -85t-95.5 -67h-229z" />
<glyph unicode="&#xfe;" horiz-adv-x="1306" d="M147 -492v2048h347v-368q0 -66 -6.5 -122t-10.5 -87h17q39 70 115.5 118t193.5 48q182 0 298 -146.5t116 -433.5q0 -289 -118 -437t-302 -148q-113 0 -186.5 39.5t-116.5 93.5h-15q6 -31 10.5 -76t4.5 -78v-451h-347zM494 567q0 -150 42 -229.5t152 -79.5q94 0 135 79.5 t41 231.5t-43 227.5t-137 75.5q-104 0 -146 -67.5t-44 -206.5v-31z" />
<glyph unicode="&#xff;" horiz-adv-x="1204" d="M0 1124h369l202 -637q23 -74 29 -161h6q6 47 15.5 86t19.5 73l203 639h360l-463 -1235q-70 -188 -190.5 -284.5t-308.5 -96.5q-53 0 -91 5.5t-67 11.5v272q23 -4 54.5 -8t66.5 -4q96 0 148.5 57.5t78.5 134.5l12 35zM227 1409q0 76 43 110.5t109 34.5q63 0 109 -34.5 t46 -110.5q0 -74 -46 -108.5t-109 -34.5q-66 0 -109 34.5t-43 108.5zM665 1409q0 76 44 110.5t112 34.5q61 0 107 -34.5t46 -110.5q0 -74 -46 -108.5t-107 -34.5q-68 0 -112 34.5t-44 108.5z" />
<glyph unicode="&#x152;" horiz-adv-x="1978" d="M113 735q0 227 71.5 395t219 261.5t372.5 93.5q53 0 123 -6t115 -17h854v-282h-522v-281h485v-283h-485v-329h522v-287h-860q-43 -8 -112 -14t-122 -6q-223 0 -369.5 94t-219 264t-72.5 397zM475 733q0 -215 73 -338t226 -123q61 0 122.5 10.5t100.5 30.5v838 q-35 20 -97.5 32.5t-123.5 12.5q-156 0 -228.5 -124t-72.5 -339z" />
<glyph unicode="&#x153;" horiz-adv-x="2004" d="M90 565q0 279 145.5 429.5t407.5 150.5q113 0 210 -36t169 -105q74 70 170 105.5t221 35.5q227 0 365.5 -130t138.5 -384v-158h-723q6 -109 76.5 -175.5t199.5 -66.5q96 0 190.5 19.5t190.5 66.5v-256q-86 -43 -179 -62t-232 -19q-121 0 -223.5 35.5t-178.5 111.5 q-72 -74 -173 -110.5t-224 -36.5q-160 0 -285 67.5t-195.5 198.5t-70.5 319zM440 565q0 -156 47.5 -237.5t155.5 -81.5q106 0 153.5 82t47.5 237q0 156 -47 235t-156 79q-106 0 -153.5 -79t-47.5 -235zM1202 696h400q-2 88 -51.5 148.5t-145.5 60.5q-82 0 -137.5 -49 t-65.5 -160z" />
<glyph unicode="&#x178;" horiz-adv-x="1314" d="M0 1462h379l278 -575l281 575h377l-484 -893v-569h-348v559zM283 1747q0 76 43 110.5t109 34.5q63 0 109 -34.5t46 -110.5q0 -74 -46 -108.5t-109 -34.5q-66 0 -109 34.5t-43 108.5zM721 1747q0 76 44 110.5t112 34.5q61 0 107 -34.5t46 -110.5q0 -74 -46 -108.5 t-107 -34.5q-68 0 -112 34.5t-44 108.5z" />
<glyph unicode="&#x2c6;" horiz-adv-x="1050" d="M82 1241v27q37 39 86 91t95 108.5t75 101.5h375q29 -45 76 -101.5t96 -109.5t84 -90v-27h-228q-53 33 -108 73t-109 91q-53 -51 -107.5 -91t-107.5 -73h-227z" />
<glyph unicode="&#x2dc;" horiz-adv-x="999" d="M82 1239q12 172 84 248t178 76q53 0 108.5 -26t108.5 -50.5t105 -24.5q25 0 50 22.5t36 80.5h166q-12 -170 -86 -247t-175 -77q-57 0 -113.5 24.5t-109.5 50t-102 25.5q-25 0 -49.5 -21.5t-36.5 -80.5h-164z" />
<glyph unicode="&#x2000;" horiz-adv-x="953" />
<glyph unicode="&#x2001;" horiz-adv-x="1907" />
<glyph unicode="&#x2002;" horiz-adv-x="953" />
<glyph unicode="&#x2003;" horiz-adv-x="1907" />
<glyph unicode="&#x2004;" horiz-adv-x="635" />
<glyph unicode="&#x2005;" horiz-adv-x="476" />
<glyph unicode="&#x2006;" horiz-adv-x="317" />
<glyph unicode="&#x2007;" horiz-adv-x="317" />
<glyph unicode="&#x2008;" horiz-adv-x="238" />
<glyph unicode="&#x2009;" horiz-adv-x="381" />
<glyph unicode="&#x200a;" horiz-adv-x="105" />
<glyph unicode="&#x2010;" horiz-adv-x="655" d="M53 410v278h549v-278h-549z" />
<glyph unicode="&#x2011;" horiz-adv-x="655" d="M53 410v278h549v-278h-549z" />
<glyph unicode="&#x2012;" horiz-adv-x="655" d="M53 410v278h549v-278h-549z" />
<glyph unicode="&#x2013;" horiz-adv-x="1024" d="M78 426v252h868v-252h-868z" />
<glyph unicode="&#x2014;" horiz-adv-x="2048" d="M78 426v252h1890v-252h-1890z" />
<glyph unicode="&#x2018;" horiz-adv-x="475" d="M23 944q18 74 46.5 166t61.5 184t68 168h245q-29 -131 -56.5 -278.5t-41.5 -261.5h-309z" />
<glyph unicode="&#x2019;" horiz-adv-x="475" d="M31 922q29 131 56.5 278.5t41.5 261.5h309l15 -22q-18 -74 -47 -166t-62 -184.5t-68 -167.5h-245z" />
<glyph unicode="&#x201a;" horiz-adv-x="606" d="M62 -274q29 131 56.5 278.5t41.5 261.5h309l15 -22q-18 -74 -47 -166t-62 -184.5t-68 -167.5h-245z" />
<glyph unicode="&#x201c;" horiz-adv-x="962" d="M23 944q18 74 46.5 166t61.5 184t68 168h245q-29 -131 -56.5 -278.5t-41.5 -261.5h-309zM510 944q18 74 47 166t61.5 184t67.5 168h246q-29 -131 -56.5 -278.5t-41.5 -261.5h-310z" />
<glyph unicode="&#x201d;" horiz-adv-x="962" d="M31 922q29 131 56.5 278.5t41.5 261.5h309l15 -22q-18 -74 -47 -166t-62 -184.5t-68 -167.5h-245zM516 922q29 131 57.5 278.5t42.5 261.5h310l14 -22q-18 -74 -47 -166t-61.5 -184.5t-67.5 -167.5h-248z" />
<glyph unicode="&#x201e;" horiz-adv-x="1093" d="M62 -274q29 131 56.5 278.5t41.5 261.5h309l15 -22q-18 -74 -47 -166t-62 -184.5t-68 -167.5h-245zM547 -274q29 131 57.5 278.5t42.5 261.5h310l14 -22q-18 -74 -47 -166t-61.5 -184.5t-67.5 -167.5h-248z" />
<glyph unicode="&#x2022;" horiz-adv-x="784" d="M86 748q0 121 41 195.5t110.5 108t155.5 33.5q84 0 153.5 -33.5t110.5 -108.5t41 -195q0 -121 -41 -195t-110.5 -108.5t-153.5 -34.5q-129 0 -218 79t-89 259z" />
<glyph unicode="&#x2026;" horiz-adv-x="1763" d="M102 154q0 100 56.5 140t136.5 40q78 0 133 -40t55 -140q0 -96 -55 -138.5t-133 -42.5q-80 0 -136.5 42.5t-56.5 138.5zM690 154q0 100 56.5 140t136.5 40q78 0 133 -40t55 -140q0 -96 -55 -138.5t-133 -42.5q-80 0 -136.5 42.5t-56.5 138.5zM1278 154q0 100 56.5 140 t136.5 40q78 0 133 -40t55 -140q0 -96 -55 -138.5t-133 -42.5q-80 0 -136.5 42.5t-56.5 138.5z" />
<glyph unicode="&#x202f;" horiz-adv-x="381" />
<glyph unicode="&#x2039;" horiz-adv-x="784" d="M78 553v27l379 469l248 -134l-275 -348l275 -348l-248 -131z" />
<glyph unicode="&#x203a;" horiz-adv-x="784" d="M80 219l274 348l-274 348l248 134l379 -469v-27l-379 -465z" />
<glyph unicode="&#x205f;" horiz-adv-x="476" />
<glyph unicode="&#x20ac;" d="M61 475v191h123q-4 25 -4 53q0 14 1 28.5t1 18.5h-121v190h140q43 244 203.5 382.5t410.5 138.5q96 0 184 -20.5t166 -57.5l-108 -264q-63 29 -120.5 44t-121.5 15q-117 0 -187.5 -62.5t-88.5 -175.5h374v-190h-389q0 -6 -1 -19.5t-1 -27.5v-27.5t2 -25.5h324v-191h-303 q41 -207 293 -207q76 0 143.5 14.5t126.5 41.5v-287q-109 -57 -291 -57q-244 0 -403.5 125.5t-206.5 369.5h-146z" />
<glyph unicode="&#x2122;" horiz-adv-x="1581" d="M35 1321v141h543v-141h-193v-580h-160v580h-190zM655 741v721h238l166 -520l176 520h227v-721h-159v410q0 16 2 58t4 67h-9l-180 -535h-135l-172 535h-8q2 -33 4 -69t2 -50v-416h-156z" />
<glyph unicode="&#x25fc;" horiz-adv-x="1126" d="M0 0v1126h1126v-1126h-1126z" />
<glyph unicode="&#xfb01;" horiz-adv-x="1460" d="M43 866v168l164 88v54q0 217 98 304t291 87q88 0 160.5 -13.5t134.5 -35.5l-82 -238q-33 10 -71 17.5t-85 7.5q-106 0 -106 -129v-52h254v-258h-254v-866h-344v866h-160zM954 1411q0 94 54.5 127t132.5 33q76 0 130 -33t54 -127q0 -92 -54.5 -126t-129.5 -34 q-78 0 -132.5 34t-54.5 126zM967 0v1124h344v-1124h-344z" />
<glyph unicode="&#xfb02;" horiz-adv-x="1458" d="M43 866v168l164 88v54q0 217 98 304t291 87q88 0 160.5 -13.5t134.5 -35.5l-82 -238q-33 10 -71 17.5t-85 7.5q-106 0 -106 -129v-52h254v-258h-254v-866h-344v866h-160zM964 0v1556h347v-1556h-347z" />
<glyph unicode="&#xfb03;" horiz-adv-x="2277" d="M43 866v168l164 88v54q0 217 98 304t291 87q88 0 160.5 -13.5t134.5 -35.5l-82 -238q-33 10 -71 17.5t-85 7.5q-106 0 -106 -129v-52h254v-258h-254v-866h-344v866h-160zM860 866v168l164 88v54q0 217 98 304t291 87q88 0 160.5 -13.5t134.5 -35.5l-82 -238 q-33 10 -71 17.5t-85 7.5q-106 0 -106 -129v-52h254v-258h-254v-866h-344v866h-160zM1771 1411q0 94 54.5 127t132.5 33q76 0 130 -33t54 -127q0 -92 -54.5 -126t-129.5 -34q-78 0 -132.5 34t-54.5 126zM1784 0v1124h344v-1124h-344z" />
<glyph unicode="&#xfb04;" horiz-adv-x="2275" d="M43 866v168l164 88v54q0 217 98 304t291 87q88 0 160.5 -13.5t134.5 -35.5l-82 -238q-33 10 -71 17.5t-85 7.5q-106 0 -106 -129v-52h254v-258h-254v-866h-344v866h-160zM860 866v168l164 88v54q0 217 98 304t291 87q88 0 160.5 -13.5t134.5 -35.5l-82 -238 q-33 10 -71 17.5t-85 7.5q-106 0 -106 -129v-52h254v-258h-254v-866h-344v866h-160zM1781 0v1556h347v-1556h-347z" />
</font>
</defs>
</svg>
