<?xml version="1.0" standalone="no"?>
<!DOCTYPE svg PUBLIC "-//W3C//DTD SVG 1.1//EN" "http://www.w3.org/Graphics/SVG/1.1/DTD/svg11.dtd" >
<svg xmlns="http://www.w3.org/2000/svg" xmlns:xlink="http://www.w3.org/1999/xlink" version="1.1">
<metadata></metadata>
<defs>
<font id="noto_sansblack" horiz-adv-x="1200" >
<font-face units-per-em="2048" ascent="1638" descent="-410" />
<missing-glyph horiz-adv-x="532" />
<glyph horiz-adv-x="0" />
<glyph horiz-adv-x="682" />
<glyph horiz-adv-x="0" />
<glyph horiz-adv-x="0" />
<glyph unicode="&#xd;" horiz-adv-x="532" />
<glyph unicode=" "  horiz-adv-x="532" />
<glyph unicode="&#x09;" horiz-adv-x="532" />
<glyph unicode="&#xa0;" horiz-adv-x="532" />
<glyph unicode="!" horiz-adv-x="593" d="M82 1462h432l-51 -946h-330zM86 166q0 106 62.5 149t148.5 43q84 0 145.5 -43t61.5 -149q0 -100 -61.5 -145.5t-145.5 -45.5q-86 0 -148.5 45.5t-62.5 145.5z" />
<glyph unicode="&#x22;" horiz-adv-x="1073" d="M121 1462h356l-41 -528h-274zM596 1462h356l-41 -528h-274z" />
<glyph unicode="#" horiz-adv-x="1355" d="M37 391v254h274l31 168h-238v260h287l72 389h268l-74 -389h166l72 389h268l-73 -389h229v-260h-277l-30 -168h243v-254h-290l-74 -391h-268l73 391h-168l-71 -391h-267l72 391h-225zM578 645h165l31 168h-166z" />
<glyph unicode="$" horiz-adv-x="1181" d="M53 1028q0 186 121 279.5t322 107.5v141h188v-139q125 -6 226.5 -33.5t185.5 -60.5l-88 -274q-76 33 -159 52t-165 27v-247q143 -43 243.5 -91.5t154 -123t53.5 -195.5q0 -166 -108.5 -281.5t-342.5 -140.5v-168h-188v164q-131 4 -227.5 25.5t-182.5 58.5v313 q96 -43 205.5 -68.5t204.5 -33.5v252q-127 37 -227.5 88t-158 134t-57.5 214zM383 1042q0 -39 26 -62.5t87 -43.5v190q-113 -10 -113 -84zM684 344q117 18 117 94q0 39 -24.5 62.5t-92.5 44.5v-201z" />
<glyph unicode="%" horiz-adv-x="1941" d="M37 1026q0 217 96.5 337t276.5 120q172 0 276.5 -120t104.5 -337t-97.5 -339t-283.5 -122q-168 0 -270.5 122t-102.5 339zM338 1022q0 -98 16.5 -157.5t59.5 -59.5t59 58.5t16 158.5t-16 158.5t-59 58.5t-59.5 -58.5t-16.5 -158.5zM412 0l811 1462h297l-811 -1462h-297z M1149 444q0 217 96.5 337t276.5 120q172 0 276.5 -119.5t104.5 -337.5q0 -217 -97.5 -338.5t-283.5 -121.5q-168 0 -270.5 121.5t-102.5 338.5zM1450 440q0 -98 16.5 -157.5t59.5 -59.5t59.5 58.5t16.5 158.5q0 102 -16.5 159.5t-59.5 57.5t-59.5 -58t-16.5 -159z" />
<glyph unicode="&#x26;" horiz-adv-x="1636" d="M72 406q0 131 70.5 232t201.5 169q-61 70 -96 148.5t-35 177.5q0 152 118 250t345 98q207 0 326.5 -92.5t119.5 -255.5q0 -127 -73.5 -220.5t-190.5 -162.5l199 -189q74 113 104 260h406q-33 -150 -98.5 -287t-141.5 -227l320 -307h-506l-99 102q-55 -35 -109 -62.5 t-131 -43.5t-200 -16q-172 0 -289.5 57t-179 153.5t-61.5 215.5zM475 434q0 -63 45 -103t119 -40q57 0 100 15.5t66 33.5l-248 252q-43 -33 -62.5 -73t-19.5 -85zM565 1120q0 -45 26.5 -84t61.5 -71q57 33 87 76.5t30 91.5q0 49 -28.5 70.5t-71.5 21.5q-41 0 -73 -24.5 t-32 -80.5z" />
<glyph unicode="'" horiz-adv-x="598" d="M121 1462h356l-41 -528h-274z" />
<glyph unicode="(" horiz-adv-x="735" d="M74 582q0 168 26.5 331.5t89 315t164.5 274.5h326q-139 -193 -200.5 -434.5t-61.5 -484.5q0 -158 26.5 -320t84 -312.5t149.5 -275.5h-324q-102 119 -164.5 267.5t-89 311.5t-26.5 327z" />
<glyph unicode=")" horiz-adv-x="735" d="M55 1503h326q102 -123 164.5 -274.5t89.5 -315t27 -331.5q0 -164 -27 -327t-89.5 -311.5t-164.5 -267.5h-324q90 125 148.5 275.5t85 312.5t26.5 320q0 244 -62 485.5t-200 433.5z" />
<glyph unicode="*" horiz-adv-x="1099" d="M45 1014l45 291l348 -101l-39 352h303l-38 -352l356 101l37 -295l-314 -21l207 -278l-260 -138l-143 283l-123 -281l-272 136l206 278z" />
<glyph unicode="+" d="M92 588v268h373v367h268v-367h373v-268h-373v-361h-268v361h-373z" />
<glyph unicode="," horiz-adv-x="632" d="M57 -285q20 92 39 196.5t35 205t25 182.5h342l14 -23q-18 -74 -47 -176t-62.5 -205.5t-66.5 -179.5h-279z" />
<glyph unicode="-" horiz-adv-x="651" d="M43 393v312h565v-312h-565z" />
<glyph unicode="." horiz-adv-x="591" d="M86 166q0 106 62.5 149t150.5 43q82 0 143.5 -43t61.5 -149q0 -100 -61.5 -145.5t-143.5 -45.5q-88 0 -150.5 45.5t-62.5 145.5z" />
<glyph unicode="/" horiz-adv-x="905" d="M10 -20l545 1503h346l-545 -1503h-346z" />
<glyph unicode="0" d="M72 729q0 238 50 406t167 258t311 90q272 0 400 -199t128 -555q0 -233 -50 -401t-166.5 -258t-311.5 -90q-274 0 -401 198.5t-127 550.5zM465 729q0 -215 25.5 -324.5t109.5 -109.5q82 0 108.5 108.5t26.5 325.5t-26.5 327.5t-108.5 110.5q-84 0 -109.5 -110.5 t-25.5 -327.5z" />
<glyph unicode="1" d="M84 1053l502 409h356v-1462h-401v723v72.5t2 119t4 117.5q-27 -31 -49.5 -53.5t-42.5 -40.5l-166 -137z" />
<glyph unicode="2" d="M45 1249q66 57 139.5 111.5t175 88.5t246.5 34q147 0 257 -52.5t170.5 -142.5t60.5 -205q0 -127 -46.5 -226t-139.5 -199.5t-232 -225.5l-107 -96v-10h553v-326h-1061v260l357 361q111 117 172 186.5t86.5 118.5t25.5 102q0 66 -42 94.5t-99 28.5q-70 0 -139.5 -39 t-159.5 -117z" />
<glyph unicode="3" d="M70 59v328q94 -49 194.5 -72.5t184.5 -23.5q145 0 197 41t52 110q0 49 -25.5 84t-93 54.5t-192.5 19.5h-90v297h92q168 0 234.5 43t66.5 111q0 59 -45 86.5t-119 27.5q-68 0 -125 -18.5t-100 -40t-65 -35.5l-164 264q90 61 207.5 104.5t308.5 43.5q225 0 355 -90 t130 -248q0 -104 -45 -179t-118.5 -123t-159.5 -73v-6q176 -23 271 -107t95 -239q0 -119 -64.5 -219.5t-199.5 -159.5t-346 -59q-141 0 -241.5 21.5t-194.5 57.5z" />
<glyph unicode="4" d="M35 283v290l608 889h365v-884h161v-295h-161v-283h-390v283h-583zM377 578h241v170q0 31 2.5 81t4.5 91t2 43h-11q-20 -45 -35.5 -74t-41.5 -70z" />
<glyph unicode="5" d="M94 59v324q78 -35 186.5 -63.5t198.5 -28.5q109 0 168.5 47t59.5 137q0 82 -60.5 130t-181.5 48q-55 0 -108.5 -11t-92.5 -24l-145 72l55 772h834v-329h-498l-18 -193q33 6 66.5 12t105.5 6q123 0 223 -55t159.5 -159.5t59.5 -256.5q0 -246 -147.5 -376.5t-446.5 -130.5 q-254 0 -418 79z" />
<glyph unicode="6" d="M70 618q0 125 18 250t65.5 235.5t133.5 195.5t220 134.5t329 49.5q43 0 105.5 -5t102.5 -12v-309q-41 8 -92 13.5t-125 5.5q-147 0 -233 -44.5t-124 -127t-44 -199.5h12q39 72 105.5 121t183.5 49q193 0 301.5 -124t108.5 -351q0 -246 -138.5 -383t-377.5 -137 q-158 0 -282 68.5t-196.5 209.5t-72.5 360zM463 512q0 -53 15.5 -103.5t49 -83t84.5 -32.5q63 0 102.5 48t39.5 151q0 82 -33 130t-105 48q-74 0 -113.5 -50.5t-39.5 -107.5z" />
<glyph unicode="7" d="M78 1135v327h1055v-233l-515 -1229h-409l502 1135h-633z" />
<glyph unicode="8" d="M68 385q0 152 75.5 236t190.5 143q-92 61 -157.5 149t-65.5 215q0 117 63.5 196t174 119t255.5 40q217 0 352.5 -88t135.5 -269q0 -131 -71 -217t-181 -139q70 -39 137 -91t112.5 -123t45.5 -167q0 -119 -57.5 -211t-175.5 -145t-302 -53q-279 0 -405.5 112.5 t-126.5 292.5zM430 401q0 -61 44 -99t122 -38q90 0 133 35t43 94q0 45 -26.5 82t-62.5 63.5t-60 41.5l-27 16q-68 -35 -117 -82t-49 -113zM481 1092q0 -47 34 -86t83 -66q43 25 83 58.5t40 93.5q0 49 -36 77.5t-83 28.5q-49 0 -85 -28.5t-36 -77.5z" />
<glyph unicode="9" d="M63 965q0 244 138.5 381t380.5 137q152 0 276.5 -70t198 -215.5t73.5 -376.5q0 -260 -77.5 -449.5t-245.5 -290.5t-440 -101q-45 0 -104.5 2t-100.5 8v313q43 -8 86 -12t100 -4q164 0 255 47t128 131t43 192h-12q-41 -74 -105.5 -122t-189.5 -48q-184 0 -294 124 t-110 354zM446 969q0 -82 35 -130t107 -48q66 0 107.5 51t41.5 108q0 53 -15 102.5t-47 82t-83 32.5q-70 0 -108 -47t-38 -151z" />
<glyph unicode=":" horiz-adv-x="591" d="M86 166q0 106 62.5 149t150.5 43q82 0 143.5 -43t61.5 -149q0 -100 -61.5 -145.5t-143.5 -45.5q-88 0 -150.5 45.5t-62.5 145.5zM86 956q0 104 62.5 147.5t150.5 43.5q82 0 143.5 -43t61.5 -148q0 -102 -61.5 -147t-143.5 -45q-88 0 -150.5 45t-62.5 147z" />
<glyph unicode=";" horiz-adv-x="608" d="M57 -285q20 92 39 196.5t35 205t25 182.5h342l14 -23q-18 -74 -47 -176t-62.5 -205.5t-66.5 -179.5h-279zM92 956q0 104 61.5 147.5t149.5 43.5q82 0 144.5 -43t62.5 -148q0 -102 -62.5 -147t-144.5 -45q-88 0 -149.5 45t-61.5 147z" />
<glyph unicode="&#x3c;" d="M92 627v172l1012 506v-297l-621 -283l621 -252v-295z" />
<glyph unicode="=" d="M92 358v271h1016v-271h-1016zM92 815v268h1016v-268h-1016z" />
<glyph unicode="&#x3e;" d="M92 178v295l621 252l-621 283v297l1012 -506v-172z" />
<glyph unicode="?" horiz-adv-x="1034" d="M0 1341q113 63 241 102.5t279 39.5q227 0 352 -100.5t125 -264.5q0 -119 -55 -207t-182 -170q-90 -57 -124 -92t-34 -82v-51h-307v86q0 92 37 160.5t145 136.5q68 43 100.5 75t42 57.5t9.5 53.5q0 41 -38 66t-99 25q-150 0 -353 -107zM252 166q0 106 61.5 149t149.5 43 q84 0 145.5 -43t61.5 -149q0 -100 -61.5 -145.5t-145.5 -45.5q-88 0 -149.5 45.5t-61.5 145.5z" />
<glyph unicode="@" horiz-adv-x="1837" d="M82 610q0 184 62.5 343t178 277t279.5 184.5t367 66.5q236 0 413 -88t275 -251t98 -386q0 -96 -24.5 -189.5t-72.5 -168t-119 -120t-163 -45.5q-74 0 -139.5 31t-103.5 88h-15q-45 -51 -110.5 -85t-149.5 -34q-190 0 -284.5 112t-94.5 294q0 135 58.5 242.5t172 170 t281.5 62.5q100 0 195.5 -19.5t161.5 -41.5l-21 -422q0 -10 -1 -38t-1 -56q0 -47 13.5 -66.5t35.5 -19.5q37 0 62.5 42t40 112.5t14.5 152.5q0 229 -130 364t-388 135q-203 0 -341 -83.5t-208 -231t-70 -336.5q0 -242 136.5 -387t408.5 -145q113 0 252 25.5t262 70.5v-229 q-106 -45 -234 -70t-266 -25q-262 0 -448 92.5t-284.5 263.5t-98.5 408zM760 641q0 -100 37 -145t96 -45q82 0 116.5 65.5t43.5 216.5l10 156q-20 4 -34.5 5t-33.5 1q-123 0 -179 -76t-56 -178z" />
<glyph unicode="A" horiz-adv-x="1486" d="M0 0l477 1468h527l483 -1468h-432l-72 274h-475l-74 -274h-434zM590 598h311l-63 240q-10 39 -28.5 111.5t-37 149.5t-29.5 128q-10 -51 -26.5 -124t-33.5 -145.5t-30 -119.5z" />
<glyph unicode="B" horiz-adv-x="1380" d="M158 0v1462h510q315 0 451 -94t136 -270q0 -96 -34.5 -163t-87 -105.5t-107.5 -53.5v-10q59 -16 118.5 -50t99.5 -102.5t40 -185.5q0 -199 -149.5 -313.5t-407.5 -114.5h-569zM553 305h139q102 0 143.5 44t41.5 112q0 59 -41 105t-152 46h-131v-307zM553 901h119 q98 0 138 41t40 98q0 123 -186 123h-111v-262z" />
<glyph unicode="C" horiz-adv-x="1329" d="M104 727q0 221 82 391t241 267.5t386 97.5q106 0 223 -24.5t230 -78.5l-121 -311q-80 39 -162 64.5t-174 25.5q-139 0 -219 -114.5t-80 -319.5q0 -207 79 -314.5t242 -107.5q96 0 187.5 26.5t183.5 65.5v-334q-96 -43 -198.5 -62t-215.5 -19q-240 0 -390 94t-222 263 t-72 390z" />
<glyph unicode="D" horiz-adv-x="1503" d="M158 0v1462h506q352 0 543.5 -180t191.5 -520q0 -254 -95.5 -424t-267.5 -254t-405 -84h-473zM553 324h88q180 0 264 104.5t84 319.5q0 395 -321 395h-115v-819z" />
<glyph unicode="E" horiz-adv-x="1124" d="M158 0v1462h868v-317h-473v-230h438v-317h-438v-276h473v-322h-868z" />
<glyph unicode="F" horiz-adv-x="1103" d="M158 0v1462h864v-317h-475v-279h438v-317h-438v-549h-389z" />
<glyph unicode="G" horiz-adv-x="1515" d="M104 735q0 229 88.5 397t259.5 259.5t420 91.5q137 0 260 -26.5t214 -65.5l-125 -310q-78 39 -164 58.5t-183 19.5q-131 0 -210.5 -59.5t-115.5 -157.5t-36 -217q0 -205 86 -312.5t246 -107.5q35 0 85 5t77 12v229h-261v305h631v-788q-115 -39 -260 -63.5t-305 -24.5 q-211 0 -369.5 81.5t-248 249.5t-89.5 424z" />
<glyph unicode="H" horiz-adv-x="1568" d="M158 0v1462h397v-542h459v542h397v-1462h-397v596h-459v-596h-397z" />
<glyph unicode="I" horiz-adv-x="901" d="M70 0v225l182 70v874l-182 68v225h761v-225l-182 -68v-874l182 -70v-225h-761z" />
<glyph unicode="J" horiz-adv-x="720" d="M-162 -131q33 -6 69 -13.5t77 -7.5q106 0 144 64.5t38 196.5v1353h397v-1319q0 -221 -66.5 -353t-183 -190.5t-270.5 -58.5q-68 0 -118 6.5t-87 14.5v307z" />
<glyph unicode="K" horiz-adv-x="1406" d="M158 0v1462h397v-635q25 47 57.5 95.5t63.5 91.5l307 448h432l-461 -655l453 -807h-446l-289 559l-117 -70v-489h-397z" />
<glyph unicode="L" horiz-adv-x="1191" d="M158 0v1462h395v-1143h563v-319h-958z" />
<glyph unicode="M" horiz-adv-x="1980" d="M158 0v1462h526l305 -1038h8l299 1038h527v-1462h-363v641q0 68 2 147.5t5 150.5t8 112h-9l-295 -1051h-376l-299 1053h-9q4 -41 8.5 -111t8.5 -151.5t4 -155.5v-635h-350z" />
<glyph unicode="N" horiz-adv-x="1708" d="M158 0v1462h516l532 -1016h6l-2 35q-2 35 -5 90.5t-5 117t-2 112.5v661h352v-1462h-518l-534 1030h-9l3 -36q4 -36 7 -93t6 -121.5t3 -120.5v-659h-350z" />
<glyph unicode="O" horiz-adv-x="1632" d="M104 735q0 227 76 395t232.5 261.5t404.5 93.5q250 0 406.5 -93.5t229.5 -262.5t73 -396t-73 -396t-230.5 -263t-407.5 -94q-246 0 -403.5 94t-232.5 264t-75 397zM520 733q0 -199 68.5 -311.5t226.5 -112.5q164 0 229.5 113t65.5 311q0 199 -65.5 313.5t-227.5 114.5 t-229.5 -114.5t-67.5 -313.5z" />
<glyph unicode="P" horiz-adv-x="1294" d="M158 0v1462h506q279 0 417 -120.5t138 -344.5q0 -100 -29 -191t-93.5 -164t-171 -115t-261.5 -42h-111v-485h-395zM553 807h78q78 0 135 40t57 140q0 70 -41 113t-127 43h-102v-336z" />
<glyph unicode="Q" horiz-adv-x="1632" d="M104 735q0 227 76 395t232.5 261.5t404.5 93.5q250 0 406.5 -93.5t229.5 -262.5t73 -396q0 -229 -74 -403t-242 -267l357 -411h-492l-246 328h-14q-246 0 -403.5 94t-232.5 264t-75 397zM520 733q0 -199 68.5 -311.5t226.5 -112.5q164 0 229.5 113t65.5 311 q0 199 -65.5 313.5t-227.5 114.5t-229.5 -114.5t-67.5 -313.5z" />
<glyph unicode="R" horiz-adv-x="1386" d="M158 0v1462h479q596 0 596 -432q0 -133 -66.5 -231.5t-181.5 -161.5l426 -637h-448l-310 532h-100v-532h-395zM553 829h74q90 0 148.5 40t58.5 143q0 70 -48.5 110.5t-154.5 40.5h-78v-334z" />
<glyph unicode="S" horiz-adv-x="1181" d="M90 72v352q119 -59 240 -91t219 -32q88 0 129 30.5t41 78.5q0 57 -60.5 92t-203.5 100q-109 49 -189 106.5t-123 139.5t-43 207q0 141 70 236t193.5 143.5t287.5 48.5q143 0 258 -33t205 -72l-121 -305q-94 43 -185 68.5t-169 25.5t-112.5 -26.5t-34.5 -67.5 q0 -35 26.5 -61.5t89 -58t170.5 -81.5q106 -49 181 -104t115 -133t40 -191q0 -121 -60.5 -226t-186.5 -171.5t-326 -66.5q-100 0 -175 9t-140.5 29.5t-135.5 53.5z" />
<glyph unicode="T" horiz-adv-x="1210" d="M51 1139v323h1108v-323h-356v-1139h-395v1139h-357z" />
<glyph unicode="U" horiz-adv-x="1550" d="M150 573v889h397v-858q0 -156 58.5 -225.5t170.5 -69.5q121 0 175.5 71t54.5 226v856h395v-880q0 -276 -158 -439t-473 -163q-303 0 -461.5 154.5t-158.5 438.5z" />
<glyph unicode="V" horiz-adv-x="1421" d="M0 1462h444l199 -741q10 -41 24.5 -106.5t28 -131t15.5 -106.5q4 41 15 105.5t24.5 129t25.5 105.5l203 745h442l-479 -1462h-465z" />
<glyph unicode="W" horiz-adv-x="2127" d="M31 1462h381l159 -733q6 -27 16.5 -77t22 -107.5t21.5 -111.5t14 -91q8 61 21.5 141t30 161t31.5 150.5t26 114.5l129 553h366l125 -553q10 -43 25.5 -113.5t32 -152.5t31 -162t20.5 -139q6 51 20.5 127t28.5 148.5t22 109.5l162 735h381l-360 -1462h-467l-140 637 q-4 18 -12 61t-19.5 98.5t-19.5 108.5t-12 90q-4 -37 -13.5 -90t-19.5 -108.5t-19 -98.5t-14 -61l-141 -637h-467z" />
<glyph unicode="X" horiz-adv-x="1480" d="M4 0l485 748l-456 714h438l264 -452l254 452h451l-463 -745l498 -717h-457l-285 457l-282 -457h-447z" />
<glyph unicode="Y" horiz-adv-x="1359" d="M0 1462h430l250 -542l252 542h428l-481 -891v-571h-398v559z" />
<glyph unicode="Z" horiz-adv-x="1251" d="M61 0v244l633 899h-618v319h1108v-243l-633 -900h649v-319h-1139z" />
<glyph unicode="[" horiz-adv-x="663" d="M117 -344v1847h499v-254h-182v-1339h182v-254h-499z" />
<glyph unicode="\" horiz-adv-x="905" d="M6 1483h346l545 -1503h-346z" />
<glyph unicode="]" horiz-adv-x="663" d="M47 -90h182v1339h-182v254h500v-1847h-500v254z" />
<glyph unicode="^" horiz-adv-x="1075" d="M-16 502l440 966h170l508 -966h-295l-289 577l-248 -577h-286z" />
<glyph unicode="_" horiz-adv-x="1024" d="M-4 -133h1032v-246h-1032v246z" />
<glyph unicode="`" horiz-adv-x="856" d="M82 1548v21h430q35 -45 83 -100.5t97 -108.5t82 -90v-29h-260q-41 27 -99.5 67t-121 84t-118.5 86t-93 70z" />
<glyph unicode="a" horiz-adv-x="1275" d="M74 346q0 182 126 270.5t365 98.5l189 6v16q0 76 -37 108t-101 32q-68 0 -149.5 -24t-165.5 -60l-113 258q98 51 222 76.5t278 25.5q215 0 336 -106.5t121 -303.5v-743h-271l-75 150h-8q-49 -59 -98.5 -97.5t-115 -55.5t-159.5 -17q-147 0 -245.5 90t-98.5 276zM471 369 q0 -57 30.5 -85t82.5 -28q72 0 122 45t50 117v88l-90 -4q-109 -4 -152 -38t-43 -95z" />
<glyph unicode="b" horiz-adv-x="1316" d="M135 0v1556h391v-352q0 -59 -4 -114.5t-10 -102.5h14q43 70 115 118t186 48q176 0 289 -149.5t113 -434.5q0 -291 -115 -440t-299 -149q-119 0 -182.5 41.5t-106.5 89.5h-24l-62 -111h-305zM526 555q0 -133 36 -196.5t126 -63.5q143 0 143 278q0 273 -147 273 q-82 0 -120 -57.5t-38 -178.5v-55z" />
<glyph unicode="c" horiz-adv-x="1103" d="M86 561q0 205 78 336t212 193.5t306 62.5q104 0 197.5 -23.5t173.5 -62.5l-115 -289q-70 31 -131.5 49.5t-124.5 18.5q-88 0 -143.5 -69.5t-55.5 -213.5q0 -147 55.5 -209.5t145.5 -62.5q84 0 169 26.5t161 73.5v-311q-72 -47 -159 -73.5t-204 -26.5q-258 0 -411.5 139 t-153.5 442z" />
<glyph unicode="d" horiz-adv-x="1316" d="M86 565q0 291 115.5 439.5t300.5 148.5q113 0 182.5 -48t114.5 -118h8q-8 43 -13.5 119t-5.5 147v303h394v-1556h-295l-84 143h-15q-41 -68 -112.5 -115.5t-188.5 -47.5q-176 0 -288.5 149.5t-112.5 435.5zM481 559q0 -141 46 -205.5t120 -64.5q94 0 133 59.5t41 181.5 v31q0 133 -38 205t-140 72q-70 0 -116 -68t-46 -211z" />
<glyph unicode="e" horiz-adv-x="1265" d="M86 559q0 203 70.5 335t196.5 195.5t292 63.5q248 0 391.5 -129t143.5 -389v-174h-699q4 -88 66.5 -145.5t181.5 -57.5q106 0 194.5 20.5t182.5 65.5v-281q-82 -43 -179.5 -63t-244.5 -20q-172 0 -306 60t-212 188t-78 331zM489 707h336q-2 76 -44 128t-122 52 q-70 0 -115.5 -43t-54.5 -137z" />
<glyph unicode="f" horiz-adv-x="845" d="M45 840v192l158 96v19q0 219 89 319.5t296 100.5q88 0 159.5 -13.5t149.5 -40.5l-84 -253q-29 8 -64.5 14t-76.5 6q-86 0 -86 -117v-30h241v-293h-241v-840h-391v840h-150z" />
<glyph unicode="g" horiz-adv-x="1316" d="M86 565q0 287 115 437.5t297 150.5q119 0 191.5 -46t117.5 -114h8l29 140h338v-1135q0 -240 -148.5 -365t-455.5 -125q-137 0 -242 14.5t-201 51.5v326q102 -43 194.5 -64.5t225.5 -21.5q236 0 236 168v20q0 59 12 141h-12q-41 -68 -112 -115.5t-187 -47.5 q-180 0 -293 149.5t-113 435.5zM483 559q0 -147 41 -211.5t127 -64.5q94 0 132 60t38 181v47q0 133 -36 206t-140 73q-162 0 -162 -291z" />
<glyph unicode="h" horiz-adv-x="1372" d="M135 0v1556h391v-221q0 -127 -6 -212t-10 -130h18q55 88 132 124t180 36q111 0 202 -43t145 -134t54 -239v-737h-393v618q0 227 -135 228q-106 0 -146.5 -90t-40.5 -258v-498h-391z" />
<glyph unicode="i" horiz-adv-x="665" d="M127 1415q0 104 60.5 139t146.5 35q84 0 146.5 -34.5t62.5 -139.5q0 -100 -62.5 -136t-146.5 -36q-86 0 -146.5 36t-60.5 136zM137 0v1133h391v-1133h-391z" />
<glyph unicode="j" horiz-adv-x="663" d="M-104 -162q33 -10 60.5 -14t59.5 -4q47 0 83 33.5t36 136.5v1143h391v-1225q0 -102 -40 -193.5t-132 -149t-248 -57.5q-47 0 -109.5 7.5t-100.5 17.5v305zM125 1415q0 104 60.5 139t146.5 35q84 0 146.5 -34.5t62.5 -139.5q0 -100 -62.5 -136t-146.5 -36q-86 0 -146.5 36 t-60.5 136z" />
<glyph unicode="k" horiz-adv-x="1349" d="M135 0v1556h393v-612q0 -70 -6 -153.5t-16 -153.5h8l20 31q19 30 47.5 71t53.5 74l254 320h436l-393 -482l418 -651h-447l-248 406l-127 -97v-309h-393z" />
<glyph unicode="l" horiz-adv-x="661" d="M135 0v1556h391v-1556h-391z" />
<glyph unicode="m" horiz-adv-x="2048" d="M135 0v1133h295l57 -140h11q45 70 130 115t210 45t205.5 -42t132.5 -116h12q53 76 138.5 117t191.5 41q195 0 297 -99.5t102 -316.5v-737h-391v616q0 129 -35 179.5t-102 50.5q-94 0 -131 -83t-37 -235v-528h-392v616q0 123 -32.5 176.5t-98.5 53.5q-100 0 -136 -91 t-36 -259v-496h-391z" />
<glyph unicode="n" horiz-adv-x="1372" d="M135 0v1133h295l53 -150h15q53 80 140 125t206 45q176 0 286.5 -99.5t110.5 -316.5v-737h-391v618q0 113 -33 170.5t-104 57.5q-111 0 -149 -91t-38 -259v-496h-391z" />
<glyph unicode="o" horiz-adv-x="1304" d="M86 569q0 281 151.5 432.5t417.5 151.5q164 0 290 -67.5t199 -198t73 -318.5q0 -285 -152 -437t-416 -152q-164 0 -291 68.5t-199.5 200.5t-72.5 320zM483 569q0 -145 39 -222t131 -77q90 0 128 77t38 222q0 143 -38 218t-130 75q-90 0 -129 -75t-39 -218z" />
<glyph unicode="p" horiz-adv-x="1316" d="M135 -492v1625h318l55 -144h18q41 66 111.5 115t189.5 49q188 0 295 -150.5t107 -433.5q0 -193 -54.5 -324.5t-147.5 -198t-212 -66.5t-185.5 43t-103.5 88h-12q4 -39 8 -84t4 -105v-414h-391zM526 571q0 -135 33 -205.5t123 -70.5q74 0 111.5 63.5t37.5 214.5 q0 150 -38.5 211.5t-112.5 61.5q-86 0 -119 -61.5t-35 -182.5v-31z" />
<glyph unicode="q" horiz-adv-x="1316" d="M86 565q0 287 114.5 437.5t297.5 150.5q119 0 191.5 -46t117.5 -114h8l29 140h338v-1625h-391v469q0 84 12 166h-12q-41 -68 -112 -115.5t-187 -47.5q-180 0 -293 149.5t-113 435.5zM483 559q0 -147 41 -211.5t127 -64.5q94 0 132 60t38 181v47q0 133 -35.5 206 t-140.5 73q-162 0 -162 -291z" />
<glyph unicode="r" horiz-adv-x="960" d="M135 0v1133h291l61 -181h19q47 84 132 142.5t181 58.5q33 0 68 -5t51 -7l-35 -369q-20 4 -50 8t-83 4q-49 0 -106.5 -14t-97.5 -62.5t-40 -150.5v-557h-391z" />
<glyph unicode="s" horiz-adv-x="1058" d="M86 819q0 166 128 250t339 84q113 0 211 -24.5t205 -71.5l-107 -252q-84 39 -170 61.5t-137 22.5q-96 0 -96 -47q0 -23 17.5 -38.5t66.5 -37t143 -57.5q98 -41 162.5 -86t96.5 -111t32 -164q0 -106 -48 -190t-153.5 -131t-277.5 -47q-121 0 -216.5 13t-193.5 50v313 q109 -49 219.5 -70.5t173.5 -21.5q127 0 127 58q0 25 -20.5 43t-72.5 40.5t-148 61.5q-141 57 -211 135t-70 217z" />
<glyph unicode="t" horiz-adv-x="942" d="M53 840v159l174 123l101 238h256v-227h278v-293h-278v-441q0 -110 106 -110q51 0 96 11t93 28v-285q-63 -27 -135 -45t-183 -18t-194.5 34.5t-130 119.5t-46.5 239v467h-137z" />
<glyph unicode="u" horiz-adv-x="1372" d="M133 395v738h391v-619q0 -111 32 -168t103 -57q111 0 149 89t38 259v496h391v-1133h-295l-49 141h-23q-53 -86 -145 -123.5t-197 -37.5q-111 0 -200.5 43t-142 135t-52.5 237z" />
<glyph unicode="v" horiz-adv-x="1251" d="M0 1133h408l192 -670q2 -8 10 -45t8 -70h7q0 33 7 64.5t11 48.5l201 672h407l-432 -1133h-387z" />
<glyph unicode="w" horiz-adv-x="1863" d="M25 1133h385l92 -435q10 -47 20 -114.5t18.5 -135t12.5 -122.5h6q2 41 10.5 94t17.5 106.5t16 94.5t11 55l105 457h432l96 -463q8 -39 19.5 -99.5t21.5 -126t17 -118.5h6q4 55 12 125.5t18.5 137t20.5 109.5l100 435h377l-311 -1133h-418l-119 496q-12 51 -24.5 118.5 t-21.5 128t-13 91.5h-6q-4 -31 -14.5 -92.5t-25 -131t-26.5 -129.5l-115 -481h-411z" />
<glyph unicode="x" horiz-adv-x="1290" d="M10 0l365 578l-346 555h444l172 -318l176 318h445l-355 -555l369 -578h-444l-191 344l-190 -344h-445z" />
<glyph unicode="y" horiz-adv-x="1249" d="M-2 1133h412l192 -650q6 -20 11 -55t8 -68h8q4 41 11 71t13 50l197 652h399l-448 -1205q-51 -137 -120 -231t-170 -141.5t-249 -47.5q-53 0 -92 5.5t-68 11.5v307q20 -4 53 -8t68 -4q96 0 142.5 56t74.5 130l4 10z" />
<glyph unicode="z" horiz-adv-x="1038" d="M49 0v223l469 611h-442v299h889v-242l-449 -592h471v-299h-938z" />
<glyph unicode="{" horiz-adv-x="886" d="M61 418v301q63 0 120 16.5t91.5 54t34.5 99.5v254q0 117 40 191.5t150.5 111.5t323.5 37v-279q-41 0 -85 -6t-74.5 -27.5t-30.5 -72.5v-271q0 -125 -63.5 -181t-176.5 -71v-12q117 -18 178.5 -73.5t61.5 -172.5v-276q0 -49 30.5 -71.5t75.5 -29t84 -6.5v-278 q-211 0 -321.5 36t-151.5 112.5t-41 195.5v248q0 61 -35.5 99t-92 54.5t-118.5 16.5z" />
<glyph unicode="|" horiz-adv-x="1042" d="M387 -446v2002h268v-2002h-268z" />
<glyph unicode="}" horiz-adv-x="886" d="M66 -66q41 0 85 6.5t74.5 29t30.5 71.5v276q0 117 61.5 172.5t178.5 73.5v12q-115 14 -177.5 70.5t-62.5 181.5v271q0 51 -30.5 72.5t-75 27.5t-84.5 6v279q213 0 323.5 -37t150.5 -111.5t40 -191.5v-254q0 -61 34.5 -99t91 -54.5t119.5 -16.5v-301q-61 0 -117.5 -16.5 t-92 -54.5t-35.5 -99v-248q0 -119 -41 -195.5t-152.5 -112.5t-320.5 -36v278z" />
<glyph unicode="~" d="M92 526v281q51 53 116.5 80.5t147.5 27.5q59 0 120 -11t161 -52q76 -33 133 -44t104 -11q57 0 118 34.5t114 86.5v-281q-104 -109 -264 -109q-59 0 -120 12.5t-161 51.5q-76 33 -132 44t-103 11q-59 0 -121 -34.5t-113 -86.5z" />
<glyph unicode="&#xa1;" horiz-adv-x="593" d="M82 -334l51 946h330l51 -946h-432zM92 963q0 102 61.5 146t145.5 44q86 0 148.5 -44t62.5 -146q0 -106 -62.5 -149.5t-148.5 -43.5q-84 0 -145.5 43t-61.5 150z" />
<glyph unicode="&#xa2;" d="M129 739q0 258 122 398.5t314 179.5v166h207v-154q88 -4 170 -26.5t154 -57.5l-115 -289q-72 31 -131 49.5t-125 18.5q-90 0 -144.5 -69.5t-54.5 -213.5q0 -147 56.5 -209.5t144.5 -62.5q84 0 169 26.5t161 73.5v-311q-57 -39 -127 -64.5t-158 -33.5v-180h-207v186 q-203 31 -319.5 171t-116.5 402z" />
<glyph unicode="&#xa3;" d="M102 649v277h166v118q0 231 126 336t329 105q109 0 213 -22.5t192 -59.5l-110 -289q-76 29 -141.5 42t-110.5 13q-47 0 -80 -27.5t-33 -109.5v-106h344v-277h-344v-96q0 -66 -24.5 -110t-62.5 -71.5t-72 -45.5h671v-326h-1061v313q55 31 91 59.5t54.5 69.5t18.5 109v98 h-166z" />
<glyph unicode="&#xa4;" horiz-adv-x="1159" d="M96 1018l180 182l123 -123q39 18 86 29.5t86 11.5q92 0 177 -45l120 127l185 -174l-127 -125q41 -76 41 -178q0 -96 -41 -176l121 -119l-179 -178l-120 119q-39 -16 -84.5 -27.5t-92.5 -11.5t-92 8t-84 29l-119 -115l-178 178l123 119q-41 80 -41 174q0 47 11.5 92 t29.5 84zM436 723q0 -57 40 -96t95 -39q59 0 100.5 39t41.5 96q0 59 -41 98t-101 39q-55 0 -95 -39t-40 -98z" />
<glyph unicode="&#xa5;" d="M8 1462h400l192 -504l193 504h399l-363 -712h195v-211h-242v-117h242v-209h-242v-213h-364v213h-246v209h246v117h-246v211h190z" />
<glyph unicode="&#xa6;" horiz-adv-x="1042" d="M387 393h268v-839h-268v839zM387 717v839h268v-839h-268z" />
<glyph unicode="&#xa7;" horiz-adv-x="1024" d="M106 803q0 78 52.5 137t111.5 96q-70 49 -105.5 108.5t-35.5 137.5q0 129 105.5 212t300.5 83q102 0 197 -24.5t173 -61.5l-98 -221q-66 35 -138.5 60.5t-136.5 25.5q-109 0 -108 -74q0 -33 35 -69.5t139 -79.5q176 -72 253 -153t77 -177q0 -102 -46 -159.5t-102 -98.5 q55 -41 90 -102.5t35 -141.5q0 -137 -109.5 -231.5t-326.5 -94.5q-205 0 -352 86v244q88 -47 186 -77.5t168 -30.5q78 0 108.5 26.5t30.5 69.5q0 41 -30.5 72.5t-139.5 78.5q-98 43 -172.5 90.5t-118 111t-43.5 157.5zM397 834q0 -51 41 -89t131 -86l27 -14q14 14 27.5 41 t13.5 66q0 53 -39 96t-143 88q-20 -12 -39 -37.5t-19 -64.5z" />
<glyph unicode="&#xa8;" horiz-adv-x="1232" d="M223 1413q0 82 49.5 120t120.5 38q70 0 121 -38t51 -120q0 -80 -51 -118t-121 -38q-72 0 -121 38t-49 118zM702 1413q0 82 49.5 120t122.5 38q70 0 121.5 -38t51.5 -120q0 -80 -51.5 -118t-121.5 -38q-74 0 -123 38t-49 118z" />
<glyph unicode="&#xa9;" horiz-adv-x="1687" d="M92 731q0 164 55.5 301t157 238.5t238.5 157t301 55.5t301 -55.5t238.5 -157t156.5 -238.5t55 -301t-55 -301t-156.5 -238.5t-238.5 -156.5t-301 -55t-301 55t-238.5 156.5t-157 238.5t-55.5 301zM272 731q0 -174 73 -306t202 -207t297 -75t295 75t199.5 207t72.5 306 t-72.5 306t-199.5 207t-295 75t-297 -75t-202 -207t-73 -306zM401 735q0 209 108.5 336t326.5 127q92 0 169.5 -20.5t151.5 -57.5l-92 -205q-53 27 -102.5 41.5t-108.5 14.5q-80 0 -126 -61.5t-46 -178.5q0 -127 44 -184.5t134 -57.5q66 0 131.5 16.5t126.5 51.5v-231 q-63 -33 -127.5 -48.5t-144.5 -15.5q-221 0 -333 129t-112 344z" />
<glyph unicode="&#xaa;" horiz-adv-x="813" d="M49 967q0 131 89 179t255 56l88 4v6q0 76 -102 76q-53 0 -99.5 -13t-111.5 -42l-76 166q76 37 149.5 58.5t194.5 21.5q133 0 215 -72t82 -217v-449h-162l-45 127q-45 -70 -99 -104.5t-144 -34.5q-98 0 -166 58.5t-68 179.5zM301 979q0 -68 70 -68q55 0 82.5 42t27.5 94 v22l-84 -6q-61 -4 -78.5 -29.5t-17.5 -54.5z" />
<glyph unicode="&#xab;" horiz-adv-x="1394" d="M74 561v27l389 483l280 -149l-272 -347l272 -348l-280 -147zM649 561v27l387 483l283 -149l-275 -347l275 -348l-283 -147z" />
<glyph unicode="&#xac;" d="M92 588v268h1014v-618h-270v350h-744z" />
<glyph unicode="&#xad;" horiz-adv-x="651" d="M43 393v312h565v-312h-565z" />
<glyph unicode="&#xae;" horiz-adv-x="1687" d="M92 731q0 164 55.5 301t157 238.5t238.5 157t301 55.5t301 -55.5t238.5 -157t156.5 -238.5t55 -301t-55 -301t-156.5 -238.5t-238.5 -156.5t-301 -55t-301 55t-238.5 156.5t-157 238.5t-55.5 301zM272 731q0 -174 73 -306t202 -207t297 -75t295 75t199.5 207t72.5 306 t-72.5 306t-199.5 207t-295 75t-297 -75t-202 -207t-73 -306zM518 313v875h279q213 0 304 -70.5t91 -199.5q0 -104 -41 -158.5t-100 -83.5l194 -363h-278l-146 320h-35v-320h-268zM786 809h11q59 0 92 21.5t33 76.5q0 53 -33 69.5t-90 16.5h-13v-184z" />
<glyph unicode="&#xaf;" horiz-adv-x="1024" d="M-6 1556v246h1036v-246h-1036z" />
<glyph unicode="&#xb0;" horiz-adv-x="864" d="M63 1114q0 106 47.5 189t130.5 131.5t191 48.5q109 0 192 -48.5t130 -131t47 -189.5q0 -106 -47 -189t-130 -129t-192 -46t-191.5 46t-130 129t-47.5 189zM301 1114q0 -57 36 -92t95 -35t95 35t36 92q0 59 -35.5 96t-95.5 37q-59 0 -95 -36.5t-36 -96.5z" />
<glyph unicode="&#xb1;" d="M92 0v268h1014v-268h-1014zM92 676v268h373v367h268v-367h373v-268h-373v-361h-268v361h-373z" />
<glyph unicode="&#xb2;" horiz-adv-x="817" d="M61 1616q68 61 153 98t218 37q147 0 222 -65.5t75 -172.5q0 -80 -37 -144t-96 -121.5t-127 -114.5l-66 -56h347v-225h-674v207l215 213q86 86 117.5 131t31.5 78q0 57 -65 57q-35 0 -75 -17.5t-97 -70.5z" />
<glyph unicode="&#xb3;" horiz-adv-x="817" d="M63 1632q61 47 147.5 81t195.5 34q152 0 235.5 -59.5t83.5 -155.5q0 -78 -37 -132t-125 -87v-8q190 -49 191 -215q0 -123 -100.5 -188.5t-274.5 -65.5q-88 0 -168 17t-141 52v234q66 -45 141.5 -63.5t155.5 -18.5q51 0 83.5 15t32.5 52q0 27 -22.5 49.5t-112.5 22.5h-104 v195h80q84 0 111.5 22.5t27.5 54.5q0 25 -20.5 46.5t-71.5 21.5q-49 0 -93.5 -16.5t-97.5 -57.5z" />
<glyph unicode="&#xb4;" horiz-adv-x="856" d="M82 1241v29q35 37 84 90t97 108.5t83 100.5h428v-21q-37 -29 -92 -70.5t-118.5 -85.5t-122 -84t-99.5 -67h-260z" />
<glyph unicode="&#xb5;" horiz-adv-x="1376" d="M135 -492v1625h391v-615q0 -115 34 -172t112 -57q100 0 138 89t38 259v496h393v-1133h-293l-53 152h-16q-35 -88 -91.5 -130t-121.5 -42q-55 0 -88 20t-60 63h-4q4 -43 8 -110.5t4 -124.5v-320h-391z" />
<glyph unicode="&#xb6;" horiz-adv-x="1316" d="M102 1042q0 195 56.5 307.5t158 159.5t236.5 47h633v-1816h-191v1587h-157v-1587h-191v819q-31 -10 -56.5 -14t-68.5 -4q-127 0 -221 47t-146.5 157.5t-52.5 296.5z" />
<glyph unicode="&#xb7;" horiz-adv-x="591" d="M86 723q0 106 62.5 149t150.5 43q82 0 143.5 -43t61.5 -149q0 -100 -61.5 -145.5t-143.5 -45.5q-88 0 -150.5 45.5t-62.5 145.5z" />
<glyph unicode="&#xb8;" horiz-adv-x="589" d="M45 -264q33 -10 65.5 -16.5t67.5 -6.5q82 0 82 58q0 35 -33.5 55t-111.5 35l61 139h195l-19 -61q41 -8 85 -29t74 -58.5t30 -103.5q0 -109 -75 -174.5t-200 -65.5q-70 0 -127 10.5t-94 24.5v193z" />
<glyph unicode="&#xb9;" horiz-adv-x="817" d="M57 1454l340 275h219v-877h-282v356q0 20 2 67.5t4 91.5t4 58q-8 -18 -26.5 -37.5t-34.5 -33.5l-80 -70z" />
<glyph unicode="&#xba;" horiz-adv-x="802" d="M49 1104q0 180 95.5 277.5t258.5 97.5q100 0 179.5 -45t126.5 -129t47 -201q0 -178 -97.5 -276.5t-259.5 -98.5q-154 0 -252 100.5t-98 274.5zM301 1104q0 -172 100 -172q98 0 99 172q0 174 -99 174q-100 0 -100 -174z" />
<glyph unicode="&#xbb;" horiz-adv-x="1394" d="M76 227l272 348l-272 347l282 149l387 -483v-27l-387 -481zM649 227l275 348l-275 347l285 149l387 -483v-27l-387 -481z" />
<glyph unicode="&#xbc;" horiz-adv-x="1816" d="M-12 1188l340 274h219v-876h-283v356q0 29 2 95.5t8 121.5q-4 -8 -20 -27.5t-37 -39.5l-84 -74zM356 0l754 1462h301l-754 -1462h-301zM1028 139v189l350 555h295v-543h125v-201h-125v-139h-274v139h-371zM1241 340h158v166q0 72 6 135q-20 -51 -35.5 -84t-26.5 -49z" />
<glyph unicode="&#xbd;" horiz-adv-x="1896" d="M-12 1188l340 274h219v-876h-283v356q0 8 1 41t3 72t4 69.5t2 34.5q-4 -8 -23.5 -30.5t-39.5 -41.5l-78 -69zM381 0l754 1462h301l-754 -1462h-301zM1141 764q80 74 167 104.5t203 30.5q141 0 219 -62.5t78 -174.5q0 -82 -37.5 -146.5t-91.5 -116.5l-196 -174h346v-225 h-674v207l215 213q84 84 117 129t33 80q0 57 -66 57q-82 0 -172 -88z" />
<glyph unicode="&#xbe;" horiz-adv-x="1888" d="M84 1366q152 115 342 115q147 0 233 -57.5t86 -157.5q0 -78 -36.5 -132.5t-124.5 -86.5v-9q190 -49 190 -215q0 -121 -98.5 -187.5t-276.5 -66.5q-184 0 -309 70v233q115 -82 297 -81q117 0 117 67q0 41 -33 56.5t-102 15.5h-105v194h80q139 0 139 78q0 25 -20.5 46.5 t-71.5 21.5q-49 0 -93 -16.5t-97 -57.5zM465 0l754 1462h301l-754 -1462h-301zM1100 139v189l350 555h295v-543h125v-201h-125v-139h-275v139h-370zM1313 340h157v166q0 72 7 135q-20 -51 -36 -84t-26 -49z" />
<glyph unicode="&#xbf;" horiz-adv-x="1034" d="M37 10q0 119 55 207t182 170q90 57 124 92t34 82v51h307v-86q0 -92 -37 -160.5t-145 -136.5q-68 -43 -100.5 -75t-42 -57.5t-9.5 -53.5q0 -41 38 -66t99 -25q150 0 353 107l139 -272q-113 -63 -241 -102.5t-279 -39.5q-227 0 -352 100.5t-125 264.5zM364 962 q0 100 61.5 145.5t145.5 45.5q88 0 149.5 -45.5t61.5 -145.5q0 -106 -61.5 -149t-149.5 -43q-84 0 -145.5 43t-61.5 149z" />
<glyph unicode="&#xc0;" horiz-adv-x="1486" d="M0 0l477 1468h527l483 -1468h-432l-72 274h-475l-74 -274h-434zM311 1878v21h430q35 -45 83 -100.5t97 -108.5t82 -90v-29h-260q-41 27 -99.5 67t-121 84t-118.5 86t-93 70zM590 598h311l-63 240q-10 39 -28.5 111.5t-37 149.5t-29.5 128q-10 -51 -26.5 -124 t-33.5 -145.5t-30 -119.5z" />
<glyph unicode="&#xc1;" horiz-adv-x="1486" d="M0 0l477 1468h527l483 -1468h-432l-72 274h-475l-74 -274h-434zM539 1571v29q35 37 84 90t97 108.5t83 100.5h428v-21q-37 -29 -92 -70.5t-118.5 -85.5t-122 -84t-99.5 -67h-260zM590 598h311l-63 240q-10 39 -28.5 111.5t-37 149.5t-29.5 128q-10 -51 -26.5 -124 t-33.5 -145.5t-30 -119.5z" />
<glyph unicode="&#xc2;" horiz-adv-x="1486" d="M0 0l477 1468h527l483 -1468h-432l-72 274h-475l-74 -274h-434zM293 1571v29q39 37 87 89t94 107.5t77 102.5h393q33 -47 79 -103.5t94 -108.5t83 -87v-29h-254q-53 31 -100 66.5t-100 83.5q-53 -47 -97.5 -82t-97.5 -68h-258zM590 598h311l-63 240q-10 39 -28.5 111.5 t-37 149.5t-29.5 128q-10 -51 -26.5 -124t-33.5 -145.5t-30 -119.5z" />
<glyph unicode="&#xc3;" horiz-adv-x="1486" d="M0 0l477 1468h527l483 -1468h-432l-72 274h-475l-74 -274h-434zM320 1567q12 188 76.5 265t175.5 77q51 0 109.5 -23.5t116.5 -48t110 -24.5q18 0 39.5 16.5t31.5 81.5h183q-12 -184 -80 -263t-166 -79q-59 0 -119.5 23.5t-117 48t-107.5 24.5q-18 0 -39 -16t-33 -82 h-180zM590 598h311l-63 240q-10 39 -28.5 111.5t-37 149.5t-29.5 128q-10 -51 -26.5 -124t-33.5 -145.5t-30 -119.5z" />
<glyph unicode="&#xc4;" horiz-adv-x="1486" d="M0 0l477 1468h527l483 -1468h-432l-72 274h-475l-74 -274h-434zM332 1743q0 82 49.5 120t120.5 38q70 0 121 -38t51 -120q0 -80 -51 -118t-121 -38q-72 0 -121 38t-49 118zM590 598h311l-63 240q-10 39 -28.5 111.5t-37 149.5t-29.5 128q-10 -51 -26.5 -124t-33.5 -145.5 t-30 -119.5zM811 1743q0 82 49.5 120t122.5 38q70 0 121.5 -38t51.5 -120q0 -80 -51.5 -118t-121.5 -38q-74 0 -123 38t-49 118z" />
<glyph unicode="&#xc5;" horiz-adv-x="1486" d="M0 0l477 1468h527l483 -1468h-432l-72 274h-475l-74 -274h-434zM473 1555q0 119 72.5 186.5t191.5 67.5q113 0 192.5 -67.5t79.5 -184.5q0 -119 -79.5 -186.5t-192.5 -67.5q-119 0 -191.5 67.5t-72.5 184.5zM590 598h311l-63 240q-10 39 -28.5 111.5t-37 149.5t-29.5 128 q-10 -51 -26.5 -124t-33.5 -145.5t-30 -119.5zM653 1555q0 -37 21.5 -60.5t62.5 -23.5q35 0 59.5 23.5t24.5 60.5q0 39 -24.5 61.5t-59.5 22.5t-59.5 -22.5t-24.5 -61.5z" />
<glyph unicode="&#xc6;" horiz-adv-x="1937" d="M-10 0l628 1462h1221v-317h-473v-230h438v-317h-438v-276h473v-322h-870v274h-437l-100 -274h-442zM653 602h316v526h-111z" />
<glyph unicode="&#xc7;" horiz-adv-x="1329" d="M104 727q0 221 82 391t241 267.5t386 97.5q106 0 223 -24.5t230 -78.5l-121 -311q-80 39 -162 64.5t-174 25.5q-139 0 -219 -114.5t-80 -319.5q0 -207 79 -314.5t242 -107.5q96 0 187.5 26.5t183.5 65.5v-334q-96 -43 -198.5 -62t-215.5 -19q-240 0 -390 94t-222 263 t-72 390zM516 -264q33 -10 65.5 -16.5t67.5 -6.5q82 0 82 58q0 35 -33.5 55t-111.5 35l61 139h195l-19 -61q41 -8 85 -29t74 -58.5t30 -103.5q0 -109 -75 -174.5t-200 -65.5q-70 0 -127 10.5t-94 24.5v193z" />
<glyph unicode="&#xc8;" horiz-adv-x="1124" d="M158 0v1462h868v-317h-473v-230h438v-317h-438v-276h473v-322h-868zM160 1878v21h430q35 -45 83 -100.5t97 -108.5t82 -90v-29h-260q-41 27 -99.5 67t-121 84t-118.5 86t-93 70z" />
<glyph unicode="&#xc9;" horiz-adv-x="1124" d="M158 0v1462h868v-317h-473v-230h438v-317h-438v-276h473v-322h-868zM387 1571v29q35 37 84 90t97 108.5t83 100.5h428v-21q-37 -29 -92 -70.5t-118.5 -85.5t-122 -84t-99.5 -67h-260z" />
<glyph unicode="&#xca;" horiz-adv-x="1124" d="M141 1571v29q39 37 87 89t94 107.5t77 102.5h393q33 -47 79 -103.5t94 -108.5t83 -87v-29h-254q-53 31 -100 66.5t-100 83.5q-53 -47 -97.5 -82t-97.5 -68h-258zM158 0v1462h868v-317h-473v-230h438v-317h-438v-276h473v-322h-868z" />
<glyph unicode="&#xcb;" horiz-adv-x="1124" d="M158 0v1462h868v-317h-473v-230h438v-317h-438v-276h473v-322h-868zM180 1743q0 82 49.5 120t120.5 38q70 0 121 -38t51 -120q0 -80 -51 -118t-121 -38q-72 0 -121 38t-49 118zM659 1743q0 82 49.5 120t122.5 38q70 0 121.5 -38t51.5 -120q0 -80 -51.5 -118t-121.5 -38 q-74 0 -123 38t-49 118z" />
<glyph unicode="&#xcc;" horiz-adv-x="901" d="M19 1878v21h430q35 -45 83 -100.5t97 -108.5t82 -90v-29h-260q-41 27 -99.5 67t-121 84t-118.5 86t-93 70zM70 0v225l182 70v874l-182 68v225h761v-225l-182 -68v-874l182 -70v-225h-761z" />
<glyph unicode="&#xcd;" horiz-adv-x="901" d="M70 0v225l182 70v874l-182 68v225h761v-225l-182 -68v-874l182 -70v-225h-761zM246 1571v29q35 37 84 90t97 108.5t83 100.5h428v-21q-37 -29 -92 -70.5t-118.5 -85.5t-122 -84t-99.5 -67h-260z" />
<glyph unicode="&#xce;" horiz-adv-x="901" d="M0 1571v29q39 37 87 89t94 107.5t77 102.5h393q33 -47 79 -103.5t94 -108.5t83 -87v-29h-254q-53 31 -100 66.5t-100 83.5q-53 -47 -97.5 -82t-97.5 -68h-258zM70 0v225l182 70v874l-182 68v225h761v-225l-182 -68v-874l182 -70v-225h-761z" />
<glyph unicode="&#xcf;" horiz-adv-x="901" d="M39 1743q0 82 49.5 120t120.5 38q70 0 121 -38t51 -120q0 -80 -51 -118t-121 -38q-72 0 -121 38t-49 118zM70 0v225l182 70v874l-182 68v225h761v-225l-182 -68v-874l182 -70v-225h-761zM518 1743q0 82 49.5 120t122.5 38q70 0 121.5 -38t51.5 -120q0 -80 -51.5 -118 t-121.5 -38q-74 0 -123 38t-49 118z" />
<glyph unicode="&#xd0;" horiz-adv-x="1503" d="M31 563v320h127v579h506q352 0 543.5 -180t191.5 -520q0 -254 -95.5 -424t-267.5 -254t-405 -84h-473v563h-127zM553 324h88q180 0 264 104t84 320q1 395 -321 395h-115v-260h211v-320h-211v-239z" />
<glyph unicode="&#xd1;" horiz-adv-x="1708" d="M158 0v1462h516l532 -1016h6l-2 35q-2 35 -5 90.5t-5 117t-2 112.5v661h352v-1462h-518l-534 1030h-9l3 -36q4 -36 7 -93t6 -121.5t3 -120.5v-659h-350zM430 1567q12 188 76.5 265t175.5 77q51 0 109.5 -23.5t116.5 -48t110 -24.5q18 0 39.5 16.5t31.5 81.5h183 q-12 -184 -80 -263t-166 -79q-59 0 -119.5 23.5t-117 48t-107.5 24.5q-18 0 -39 -16t-33 -82h-180z" />
<glyph unicode="&#xd2;" horiz-adv-x="1632" d="M104 735q0 227 76 395t232.5 261.5t404.5 93.5q250 0 406.5 -93.5t229.5 -262.5t73 -396t-73 -396t-230.5 -263t-407.5 -94q-246 0 -403.5 94t-232.5 264t-75 397zM385 1878v21h430q35 -45 83 -100.5t97 -108.5t82 -90v-29h-260q-41 27 -99.5 67t-121 84t-118.5 86 t-93 70zM520 733q0 -199 68.5 -311.5t226.5 -112.5q164 0 229.5 113t65.5 311q0 199 -65.5 313.5t-227.5 114.5t-229.5 -114.5t-67.5 -313.5z" />
<glyph unicode="&#xd3;" horiz-adv-x="1632" d="M104 735q0 227 76 395t232.5 261.5t404.5 93.5q250 0 406.5 -93.5t229.5 -262.5t73 -396t-73 -396t-230.5 -263t-407.5 -94q-246 0 -403.5 94t-232.5 264t-75 397zM520 733q0 -199 68.5 -311.5t226.5 -112.5q164 0 229.5 113t65.5 311q0 199 -65.5 313.5t-227.5 114.5 t-229.5 -114.5t-67.5 -313.5zM612 1571v29q35 37 84 90t97 108.5t83 100.5h428v-21q-37 -29 -92 -70.5t-118.5 -85.5t-122 -84t-99.5 -67h-260z" />
<glyph unicode="&#xd4;" horiz-adv-x="1632" d="M104 735q0 227 76 395t232.5 261.5t404.5 93.5q250 0 406.5 -93.5t229.5 -262.5t73 -396t-73 -396t-230.5 -263t-407.5 -94q-246 0 -403.5 94t-232.5 264t-75 397zM367 1571v29q39 37 87 89t94 107.5t77 102.5h393q33 -47 79 -103.5t94 -108.5t83 -87v-29h-254 q-53 31 -100 66.5t-100 83.5q-53 -47 -97.5 -82t-97.5 -68h-258zM520 733q0 -199 68.5 -311.5t226.5 -112.5q164 0 229.5 113t65.5 311q0 199 -65.5 313.5t-227.5 114.5t-229.5 -114.5t-67.5 -313.5z" />
<glyph unicode="&#xd5;" horiz-adv-x="1632" d="M104 735q0 227 76 395t232.5 261.5t404.5 93.5q250 0 406.5 -93.5t229.5 -262.5t73 -396t-73 -396t-230.5 -263t-407.5 -94q-246 0 -403.5 94t-232.5 264t-75 397zM393 1567q12 188 76.5 265t175.5 77q51 0 109.5 -23.5t116.5 -48t110 -24.5q18 0 39.5 16.5t31.5 81.5 h183q-12 -184 -80 -263t-166 -79q-59 0 -119.5 23.5t-117 48t-107.5 24.5q-18 0 -39 -16t-33 -82h-180zM520 733q0 -199 68.5 -311.5t226.5 -112.5q164 0 229.5 113t65.5 311q0 199 -65.5 313.5t-227.5 114.5t-229.5 -114.5t-67.5 -313.5z" />
<glyph unicode="&#xd6;" horiz-adv-x="1632" d="M104 735q0 227 76 395t232.5 261.5t404.5 93.5q250 0 406.5 -93.5t229.5 -262.5t73 -396t-73 -396t-230.5 -263t-407.5 -94q-246 0 -403.5 94t-232.5 264t-75 397zM405 1743q0 82 49.5 120t120.5 38q70 0 121 -38t51 -120q0 -80 -51 -118t-121 -38q-72 0 -121 38t-49 118 zM520 733q0 -199 68.5 -311.5t226.5 -112.5q164 0 229.5 113t65.5 311q0 199 -65.5 313.5t-227.5 114.5t-229.5 -114.5t-67.5 -313.5zM884 1743q0 82 49.5 120t122.5 38q70 0 121.5 -38t51.5 -120q0 -80 -51.5 -118t-121.5 -38q-74 0 -123 38t-49 118z" />
<glyph unicode="&#xd7;" d="M141 991l183 189l270 -267l274 267l189 -183l-275 -274l271 -272l-185 -185l-274 271l-270 -269l-181 187l265 268z" />
<glyph unicode="&#xd8;" horiz-adv-x="1632" d="M104 735q0 227 76 395t232.5 261.5t404.5 93.5q195 0 330 -55l76 118l190 -114l-82 -125q102 -98 148.5 -246t46.5 -330q0 -227 -73 -396t-230.5 -263t-407.5 -94q-176 0 -307 43l-84 -132l-193 125l84 125q-109 100 -160 251t-51 343zM520 733q0 -70 6 -130t23 -109 l403 639q-29 12 -63.5 20t-71.5 8q-162 0 -229.5 -114.5t-67.5 -313.5zM698 324q25 -6 54.5 -10.5t62.5 -4.5q164 0 229.5 112.5t65.5 311.5q0 125 -18 211z" />
<glyph unicode="&#xd9;" horiz-adv-x="1550" d="M150 573v889h397v-858q0 -156 58.5 -225.5t170.5 -69.5q121 0 175.5 71t54.5 226v856h395v-880q0 -276 -158 -439t-473 -163q-303 0 -461.5 154.5t-158.5 438.5zM344 1878v21h430q35 -45 83 -100.5t97 -108.5t82 -90v-29h-260q-41 27 -99.5 67t-121 84t-118.5 86t-93 70z " />
<glyph unicode="&#xda;" horiz-adv-x="1550" d="M150 573v889h397v-858q0 -156 58.5 -225.5t170.5 -69.5q121 0 175.5 71t54.5 226v856h395v-880q0 -276 -158 -439t-473 -163q-303 0 -461.5 154.5t-158.5 438.5zM571 1571v29q35 37 84 90t97 108.5t83 100.5h428v-21q-37 -29 -92 -70.5t-118.5 -85.5t-122 -84t-99.5 -67 h-260z" />
<glyph unicode="&#xdb;" horiz-adv-x="1550" d="M150 573v889h397v-858q0 -156 58.5 -225.5t170.5 -69.5q121 0 175.5 71t54.5 226v856h395v-880q0 -276 -158 -439t-473 -163q-303 0 -461.5 154.5t-158.5 438.5zM326 1571v29q39 37 87 89t94 107.5t77 102.5h393q33 -47 79 -103.5t94 -108.5t83 -87v-29h-254 q-53 31 -100 66.5t-100 83.5q-53 -47 -97.5 -82t-97.5 -68h-258z" />
<glyph unicode="&#xdc;" horiz-adv-x="1550" d="M150 573v889h397v-858q0 -156 58.5 -225.5t170.5 -69.5q121 0 175.5 71t54.5 226v856h395v-880q0 -276 -158 -439t-473 -163q-303 0 -461.5 154.5t-158.5 438.5zM364 1743q0 82 49.5 120t120.5 38q70 0 121 -38t51 -120q0 -80 -51 -118t-121 -38q-72 0 -121 38t-49 118z M843 1743q0 82 49.5 120t122.5 38q70 0 121.5 -38t51.5 -120q0 -80 -51.5 -118t-121.5 -38q-74 0 -123 38t-49 118z" />
<glyph unicode="&#xdd;" horiz-adv-x="1359" d="M0 1462h430l250 -542l252 542h428l-481 -891v-571h-398v559zM475 1571v29q35 37 84 90t97 108.5t83 100.5h428v-21q-37 -29 -92 -70.5t-118.5 -85.5t-122 -84t-99.5 -67h-260z" />
<glyph unicode="&#xde;" horiz-adv-x="1284" d="M158 0v1462h395v-213h111q279 0 417 -121t138 -344q0 -100 -29 -191t-93.5 -164t-171 -115t-261.5 -42h-111v-272h-395zM553 594h72q76 0 135 44t59 144q0 70 -39 109t-125 39h-102v-336z" />
<glyph unicode="&#xdf;" horiz-adv-x="1536" d="M135 0v1100q0 150 80 254t218 158.5t315 54.5q172 0 306 -42t209.5 -126t75.5 -209q0 -86 -41 -148.5t-93 -105.5t-93 -74t-41 -51q0 -39 52.5 -64.5t154.5 -91.5t150.5 -134t48.5 -187q0 -172 -116 -263t-337 -91q-139 0 -223 12t-148 47v291q35 -20 84 -39t101.5 -30 t93.5 -11q57 0 97 22.5t40 63.5q0 23 -11 42t-51 46t-124 70q-125 66 -174.5 124t-49.5 138q0 63 28 107t70 78t84 63.5t69.5 63.5t27.5 81q0 51 -50 85t-140 34q-113 0 -167.5 -54.5t-54.5 -154.5v-1059h-391z" />
<glyph unicode="&#xe0;" horiz-adv-x="1275" d="M74 346q0 182 126 270.5t365 98.5l189 6v16q0 76 -37 108t-101 32q-68 0 -149.5 -24t-165.5 -60l-113 258q98 51 222 76.5t278 25.5q215 0 336 -106.5t121 -303.5v-743h-271l-75 150h-8q-49 -59 -98.5 -97.5t-115 -55.5t-159.5 -17q-147 0 -245.5 90t-98.5 276zM207 1548 v21h430q35 -45 83 -100.5t97 -108.5t82 -90v-29h-260q-41 27 -99.5 67t-121 84t-118.5 86t-93 70zM471 369q0 -57 30.5 -85t82.5 -28q72 0 122 45t50 117v88l-90 -4q-109 -4 -152 -38t-43 -95z" />
<glyph unicode="&#xe1;" horiz-adv-x="1275" d="M74 346q0 182 126 270.5t365 98.5l189 6v16q0 76 -37 108t-101 32q-68 0 -149.5 -24t-165.5 -60l-113 258q98 51 222 76.5t278 25.5q215 0 336 -106.5t121 -303.5v-743h-271l-75 150h-8q-49 -59 -98.5 -97.5t-115 -55.5t-159.5 -17q-147 0 -245.5 90t-98.5 276zM434 1241 v29q35 37 84 90t97 108.5t83 100.5h428v-21q-37 -29 -92 -70.5t-118.5 -85.5t-122 -84t-99.5 -67h-260zM471 369q0 -57 30.5 -85t82.5 -28q72 0 122 45t50 117v88l-90 -4q-109 -4 -152 -38t-43 -95z" />
<glyph unicode="&#xe2;" horiz-adv-x="1275" d="M74 346q0 182 126 270.5t365 98.5l189 6v16q0 76 -37 108t-101 32q-68 0 -149.5 -24t-165.5 -60l-113 258q98 51 222 76.5t278 25.5q215 0 336 -106.5t121 -303.5v-743h-271l-75 150h-8q-49 -59 -98.5 -97.5t-115 -55.5t-159.5 -17q-147 0 -245.5 90t-98.5 276zM188 1241 v29q39 37 87 89t94 107.5t77 102.5h393q33 -47 79 -103.5t94 -108.5t83 -87v-29h-254q-53 31 -100 66.5t-100 83.5q-53 -47 -97.5 -82t-97.5 -68h-258zM471 369q0 -57 30.5 -85t82.5 -28q72 0 122 45t50 117v88l-90 -4q-109 -4 -152 -38t-43 -95z" />
<glyph unicode="&#xe3;" horiz-adv-x="1275" d="M74 346q0 182 126 270.5t365 98.5l189 6v16q0 76 -37 108t-101 32q-68 0 -149.5 -24t-165.5 -60l-113 258q98 51 222 76.5t278 25.5q215 0 336 -106.5t121 -303.5v-743h-271l-75 150h-8q-49 -59 -98.5 -97.5t-115 -55.5t-159.5 -17q-147 0 -245.5 90t-98.5 276zM215 1237 q12 188 76.5 265t175.5 77q51 0 109.5 -23.5t116.5 -48t110 -24.5q18 0 39.5 16.5t31.5 81.5h183q-12 -184 -80 -263t-166 -79q-59 0 -119.5 23.5t-117 48t-107.5 24.5q-18 0 -39 -16t-33 -82h-180zM471 369q0 -57 30.5 -85t82.5 -28q72 0 122 45t50 117v88l-90 -4 q-109 -4 -152 -38t-43 -95z" />
<glyph unicode="&#xe4;" horiz-adv-x="1275" d="M74 346q0 182 126 270.5t365 98.5l189 6v16q0 76 -37 108t-101 32q-68 0 -149.5 -24t-165.5 -60l-113 258q98 51 222 76.5t278 25.5q215 0 336 -106.5t121 -303.5v-743h-271l-75 150h-8q-49 -59 -98.5 -97.5t-115 -55.5t-159.5 -17q-147 0 -245.5 90t-98.5 276zM227 1413 q0 82 49.5 120t120.5 38q70 0 121 -38t51 -120q0 -80 -51 -118t-121 -38q-72 0 -121 38t-49 118zM471 369q0 -57 30.5 -85t82.5 -28q72 0 122 45t50 117v88l-90 -4q-109 -4 -152 -38t-43 -95zM706 1413q0 82 49.5 120t122.5 38q70 0 121.5 -38t51.5 -120q0 -80 -51.5 -118 t-121.5 -38q-74 0 -123 38t-49 118z" />
<glyph unicode="&#xe5;" horiz-adv-x="1275" d="M74 346q0 182 126 270.5t365 98.5l189 6v16q0 76 -37 108t-101 32q-68 0 -149.5 -24t-165.5 -60l-113 258q98 51 222 76.5t278 25.5q215 0 336 -106.5t121 -303.5v-743h-271l-75 150h-8q-49 -59 -98.5 -97.5t-115 -55.5t-159.5 -17q-147 0 -245.5 90t-98.5 276zM375 1489 q0 119 72.5 186.5t191.5 67.5q113 0 192.5 -67.5t79.5 -184.5q0 -119 -79.5 -186.5t-192.5 -67.5q-119 0 -191.5 67.5t-72.5 184.5zM471 369q0 -57 30.5 -85t82.5 -28q72 0 122 45t50 117v88l-90 -4q-109 -4 -152 -38t-43 -95zM555 1489q0 -37 21.5 -60.5t62.5 -23.5 q35 0 59.5 23.5t24.5 60.5q0 39 -24.5 61.5t-59.5 22.5t-59.5 -22.5t-24.5 -61.5z" />
<glyph unicode="&#xe6;" horiz-adv-x="1914" d="M74 352q0 127 62.5 205t174 115t260.5 43l183 6v18q0 82 -41 110t-95 28q-68 0 -150.5 -21.5t-162.5 -58.5l-110 256q96 51 212.5 75.5t241.5 24.5q199 0 336 -94q72 49 153.5 71.5t198.5 22.5q143 0 254 -57.5t174.5 -173t63.5 -289.5v-172h-696q4 -84 68.5 -143.5 t191.5 -59.5q78 0 173 18.5t191 67.5v-281q-82 -43 -176 -63t-240 -20q-129 0 -241.5 46t-188.5 144q-70 -72 -132 -114t-142 -59t-203 -17q-94 0 -176 39.5t-133 122.5t-51 210zM473 356q0 -55 31 -77.5t82 -22.5q70 0 120 45t50 117v88l-84 -4q-115 -2 -157 -41t-42 -105z M1139 707h340q-2 74 -44 127t-120 53q-72 0 -120 -40t-56 -140z" />
<glyph unicode="&#xe7;" horiz-adv-x="1103" d="M86 561q0 205 78 336t212 193.5t306 62.5q104 0 197.5 -23.5t173.5 -62.5l-115 -289q-70 31 -131.5 49.5t-124.5 18.5q-88 0 -143.5 -69.5t-55.5 -213.5q0 -147 55.5 -209.5t145.5 -62.5q84 0 169 26.5t161 73.5v-311q-72 -47 -159 -73.5t-204 -26.5q-258 0 -411.5 139 t-153.5 442zM385 -264q33 -10 65.5 -16.5t67.5 -6.5q82 0 82 58q0 35 -33.5 55t-111.5 35l61 139h195l-19 -61q41 -8 85 -29t74 -58.5t30 -103.5q0 -109 -75 -174.5t-200 -65.5q-70 0 -127 10.5t-94 24.5v193z" />
<glyph unicode="&#xe8;" horiz-adv-x="1265" d="M86 559q0 203 70.5 335t196.5 195.5t292 63.5q248 0 391.5 -129t143.5 -389v-174h-699q4 -88 66.5 -145.5t181.5 -57.5q106 0 194.5 20.5t182.5 65.5v-281q-82 -43 -179.5 -63t-244.5 -20q-172 0 -306 60t-212 188t-78 331zM201 1548v21h430q35 -45 83 -100.5t97 -108.5 t82 -90v-29h-260q-41 27 -99.5 67t-121 84t-118.5 86t-93 70zM489 707h336q-2 76 -44 128t-122 52q-70 0 -115.5 -43t-54.5 -137z" />
<glyph unicode="&#xe9;" horiz-adv-x="1265" d="M86 559q0 203 70.5 335t196.5 195.5t292 63.5q248 0 391.5 -129t143.5 -389v-174h-699q4 -88 66.5 -145.5t181.5 -57.5q106 0 194.5 20.5t182.5 65.5v-281q-82 -43 -179.5 -63t-244.5 -20q-172 0 -306 60t-212 188t-78 331zM428 1241v29q35 37 84 90t97 108.5t83 100.5 h428v-21q-37 -29 -92 -70.5t-118.5 -85.5t-122 -84t-99.5 -67h-260zM489 707h336q-2 76 -44 128t-122 52q-70 0 -115.5 -43t-54.5 -137z" />
<glyph unicode="&#xea;" horiz-adv-x="1265" d="M86 559q0 203 70.5 335t196.5 195.5t292 63.5q248 0 391.5 -129t143.5 -389v-174h-699q4 -88 66.5 -145.5t181.5 -57.5q106 0 194.5 20.5t182.5 65.5v-281q-82 -43 -179.5 -63t-244.5 -20q-172 0 -306 60t-212 188t-78 331zM182 1241v29q39 37 87 89t94 107.5t77 102.5 h393q33 -47 79 -103.5t94 -108.5t83 -87v-29h-254q-53 31 -100 66.5t-100 83.5q-53 -47 -97.5 -82t-97.5 -68h-258zM489 707h336q-2 76 -44 128t-122 52q-70 0 -115.5 -43t-54.5 -137z" />
<glyph unicode="&#xeb;" horiz-adv-x="1265" d="M86 559q0 203 70.5 335t196.5 195.5t292 63.5q248 0 391.5 -129t143.5 -389v-174h-699q4 -88 66.5 -145.5t181.5 -57.5q106 0 194.5 20.5t182.5 65.5v-281q-82 -43 -179.5 -63t-244.5 -20q-172 0 -306 60t-212 188t-78 331zM221 1413q0 82 49.5 120t120.5 38 q70 0 121 -38t51 -120q0 -80 -51 -118t-121 -38q-72 0 -121 38t-49 118zM489 707h336q-2 76 -44 128t-122 52q-70 0 -115.5 -43t-54.5 -137zM700 1413q0 82 49.5 120t122.5 38q70 0 121.5 -38t51.5 -120q0 -80 -51.5 -118t-121.5 -38q-74 0 -123 38t-49 118z" />
<glyph unicode="&#xec;" horiz-adv-x="665" d="M-98 1548v21h430q35 -45 83 -100.5t97 -108.5t82 -90v-29h-260q-41 27 -99.5 67t-121 84t-118.5 86t-93 70zM137 0v1133h391v-1133h-391z" />
<glyph unicode="&#xed;" horiz-adv-x="665" d="M129 1241v29q35 37 84 90t97 108.5t83 100.5h428v-21q-37 -29 -92 -70.5t-118.5 -85.5t-122 -84t-99.5 -67h-260zM137 0v1133h391v-1133h-391z" />
<glyph unicode="&#xee;" horiz-adv-x="665" d="M-117 1241v29q39 37 87 89t94 107.5t77 102.5h393q33 -47 79 -103.5t94 -108.5t83 -87v-29h-254q-53 31 -100 66.5t-100 83.5q-53 -47 -97.5 -82t-97.5 -68h-258zM137 0v1133h391v-1133h-391z" />
<glyph unicode="&#xef;" horiz-adv-x="665" d="M-78 1413q0 82 49.5 120t120.5 38q70 0 121 -38t51 -120q0 -80 -51 -118t-121 -38q-72 0 -121 38t-49 118zM137 0v1133h391v-1133h-391zM401 1413q0 82 49.5 120t122.5 38q70 0 121.5 -38t51.5 -120q0 -80 -51.5 -118t-121.5 -38q-74 0 -123 38t-49 118z" />
<glyph unicode="&#xf0;" horiz-adv-x="1312" d="M88 498q0 170 63.5 284.5t171 173t244.5 58.5q100 0 158.5 -21.5t85.5 -62.5l8 4q-29 55 -61.5 106.5t-81.5 100.5l-182 -119l-117 184l143 92q-31 20 -70.5 45t-78.5 48l108 182q80 -33 145.5 -65.5t120.5 -69.5l209 137l115 -182l-145 -97q145 -141 219 -309t74 -407 q0 -186 -70 -320.5t-197 -207t-301 -72.5q-162 0 -289 59t-199.5 174t-72.5 285zM489 500q0 -109 37 -175.5t127 -66.5t127 71.5t37 215.5q0 70 -40 129t-124 59q-92 0 -128 -56t-36 -177z" />
<glyph unicode="&#xf1;" horiz-adv-x="1372" d="M135 0v1133h295l53 -150h15q53 80 140 125t206 45q176 0 286.5 -99.5t110.5 -316.5v-737h-391v618q0 113 -33 170.5t-104 57.5q-111 0 -149 -91t-38 -259v-496h-391zM262 1237q12 188 76.5 265t175.5 77q51 0 109.5 -23.5t116.5 -48t110 -24.5q18 0 39.5 16.5t31.5 81.5 h183q-12 -184 -80 -263t-166 -79q-59 0 -119.5 23.5t-117 48t-107.5 24.5q-18 0 -39 -16t-33 -82h-180z" />
<glyph unicode="&#xf2;" horiz-adv-x="1304" d="M86 569q0 281 151.5 432.5t417.5 151.5q164 0 290 -67.5t199 -198t73 -318.5q0 -285 -152 -437t-416 -152q-164 0 -291 68.5t-199.5 200.5t-72.5 320zM221 1548v21h430q35 -45 83 -100.5t97 -108.5t82 -90v-29h-260q-41 27 -99.5 67t-121 84t-118.5 86t-93 70zM483 569 q0 -145 39 -222t131 -77q90 0 128 77t38 222q0 143 -38 218t-130 75q-90 0 -129 -75t-39 -218z" />
<glyph unicode="&#xf3;" horiz-adv-x="1304" d="M86 569q0 281 151.5 432.5t417.5 151.5q164 0 290 -67.5t199 -198t73 -318.5q0 -285 -152 -437t-416 -152q-164 0 -291 68.5t-199.5 200.5t-72.5 320zM449 1241v29q35 37 84 90t97 108.5t83 100.5h428v-21q-37 -29 -92 -70.5t-118.5 -85.5t-122 -84t-99.5 -67h-260z M483 569q0 -145 39 -222t131 -77q90 0 128 77t38 222q0 143 -38 218t-130 75q-90 0 -129 -75t-39 -218z" />
<glyph unicode="&#xf4;" horiz-adv-x="1304" d="M86 569q0 281 151.5 432.5t417.5 151.5q164 0 290 -67.5t199 -198t73 -318.5q0 -285 -152 -437t-416 -152q-164 0 -291 68.5t-199.5 200.5t-72.5 320zM203 1241v29q39 37 87 89t94 107.5t77 102.5h393q33 -47 79 -103.5t94 -108.5t83 -87v-29h-254q-53 31 -100 66.5 t-100 83.5q-53 -47 -97.5 -82t-97.5 -68h-258zM483 569q0 -145 39 -222t131 -77q90 0 128 77t38 222q0 143 -38 218t-130 75q-90 0 -129 -75t-39 -218z" />
<glyph unicode="&#xf5;" horiz-adv-x="1304" d="M86 569q0 281 151.5 432.5t417.5 151.5q164 0 290 -67.5t199 -198t73 -318.5q0 -285 -152 -437t-416 -152q-164 0 -291 68.5t-199.5 200.5t-72.5 320zM229 1237q12 188 76.5 265t175.5 77q51 0 109.5 -23.5t116.5 -48t110 -24.5q18 0 39.5 16.5t31.5 81.5h183 q-12 -184 -80 -263t-166 -79q-59 0 -119.5 23.5t-117 48t-107.5 24.5q-18 0 -39 -16t-33 -82h-180zM483 569q0 -145 39 -222t131 -77q90 0 128 77t38 222q0 143 -38 218t-130 75q-90 0 -129 -75t-39 -218z" />
<glyph unicode="&#xf6;" horiz-adv-x="1304" d="M86 569q0 281 151.5 432.5t417.5 151.5q164 0 290 -67.5t199 -198t73 -318.5q0 -285 -152 -437t-416 -152q-164 0 -291 68.5t-199.5 200.5t-72.5 320zM241 1413q0 82 49.5 120t120.5 38q70 0 121 -38t51 -120q0 -80 -51 -118t-121 -38q-72 0 -121 38t-49 118zM483 569 q0 -145 39 -222t131 -77q90 0 128 77t38 222q0 143 -38 218t-130 75q-90 0 -129 -75t-39 -218zM720 1413q0 82 49.5 120t122.5 38q70 0 121.5 -38t51.5 -120q0 -80 -51.5 -118t-121.5 -38q-74 0 -123 38t-49 118z" />
<glyph unicode="&#xf7;" d="M92 588v268h1014v-268h-1014zM442 332q0 94 46.5 132t109.5 38q61 0 109.5 -38t48.5 -132q0 -90 -48.5 -130t-109.5 -40q-63 0 -109.5 40t-46.5 130zM442 1112q0 96 46.5 133t109.5 37q61 0 109.5 -37t48.5 -133q0 -88 -48.5 -129t-109.5 -41q-63 0 -109.5 41t-46.5 129z " />
<glyph unicode="&#xf8;" horiz-adv-x="1361" d="M86 569q0 281 160 432.5t438 151.5q63 0 121.5 -10t112.5 -29l71 111l168 -105l-67 -104q86 -74 135 -187t49 -260q0 -285 -159 -437t-437 -152q-121 0 -229 34l-84 -131l-170 107l79 123q-90 76 -139 190.5t-49 265.5zM461 569q0 -43 2 -78.5t10 -68.5l289 448 q-37 12 -82 13q-121 0 -170 -79t-49 -235zM606 258q31 -8 76 -8q125 0 171 81.5t46 237.5q0 37 -2 70t-8 61z" />
<glyph unicode="&#xf9;" horiz-adv-x="1372" d="M133 395v738h391v-619q0 -111 32 -168t103 -57q111 0 149 89t38 259v496h391v-1133h-295l-49 141h-23q-53 -86 -145 -123.5t-197 -37.5q-111 0 -200.5 43t-142 135t-52.5 237zM254 1548v21h430q35 -45 83 -100.5t97 -108.5t82 -90v-29h-260q-41 27 -99.5 67t-121 84 t-118.5 86t-93 70z" />
<glyph unicode="&#xfa;" horiz-adv-x="1372" d="M133 395v738h391v-619q0 -111 32 -168t103 -57q111 0 149 89t38 259v496h391v-1133h-295l-49 141h-23q-53 -86 -145 -123.5t-197 -37.5q-111 0 -200.5 43t-142 135t-52.5 237zM481 1241v29q35 37 84 90t97 108.5t83 100.5h428v-21q-37 -29 -92 -70.5t-118.5 -85.5 t-122 -84t-99.5 -67h-260z" />
<glyph unicode="&#xfb;" horiz-adv-x="1372" d="M133 395v738h391v-619q0 -111 32 -168t103 -57q111 0 149 89t38 259v496h391v-1133h-295l-49 141h-23q-53 -86 -145 -123.5t-197 -37.5q-111 0 -200.5 43t-142 135t-52.5 237zM236 1241v29q39 37 87 89t94 107.5t77 102.5h393q33 -47 79 -103.5t94 -108.5t83 -87v-29 h-254q-53 31 -100 66.5t-100 83.5q-53 -47 -97.5 -82t-97.5 -68h-258z" />
<glyph unicode="&#xfc;" horiz-adv-x="1372" d="M133 395v738h391v-619q0 -111 32 -168t103 -57q111 0 149 89t38 259v496h391v-1133h-295l-49 141h-23q-53 -86 -145 -123.5t-197 -37.5q-111 0 -200.5 43t-142 135t-52.5 237zM274 1413q0 82 49.5 120t120.5 38q70 0 121 -38t51 -120q0 -80 -51 -118t-121 -38 q-72 0 -121 38t-49 118zM753 1413q0 82 49.5 120t122.5 38q70 0 121.5 -38t51.5 -120q0 -80 -51.5 -118t-121.5 -38q-74 0 -123 38t-49 118z" />
<glyph unicode="&#xfd;" horiz-adv-x="1249" d="M-2 1133h412l192 -650q6 -20 11 -55t8 -68h8q4 41 11 71t13 50l197 652h399l-448 -1205q-51 -137 -120 -231t-170 -141.5t-249 -47.5q-53 0 -92 5.5t-68 11.5v307q20 -4 53 -8t68 -4q96 0 142.5 56t74.5 130l4 10zM420 1241v29q35 37 84 90t97 108.5t83 100.5h428v-21 q-37 -29 -92 -70.5t-118.5 -85.5t-122 -84t-99.5 -67h-260z" />
<glyph unicode="&#xfe;" horiz-adv-x="1316" d="M135 -492v2048h391v-344q0 -82 -6 -138t-12 -87h18q39 70 114 118t187 48q176 0 289 -148.5t113 -435.5q0 -193 -54.5 -324.5t-147.5 -198t-214 -66.5q-106 0 -175 39.5t-112 89.5h-14q6 -31 10 -75t4 -77v-449h-391zM526 571q0 -135 36 -205.5t126 -70.5 q80 0 111.5 70.5t31.5 207.5q0 133 -32.5 203t-116.5 70t-119 -61.5t-37 -184.5v-29z" />
<glyph unicode="&#xff;" horiz-adv-x="1249" d="M-2 1133h412l192 -650q6 -20 11 -55t8 -68h8q4 41 11 71t13 50l197 652h399l-448 -1205q-51 -137 -120 -231t-170 -141.5t-249 -47.5q-53 0 -92 5.5t-68 11.5v307q20 -4 53 -8t68 -4q96 0 142.5 56t74.5 130l4 10zM213 1413q0 82 49.5 120t120.5 38q70 0 121 -38t51 -120 q0 -80 -51 -118t-121 -38q-72 0 -121 38t-49 118zM692 1413q0 82 49.5 120t122.5 38q70 0 121.5 -38t51.5 -120q0 -80 -51.5 -118t-121.5 -38q-74 0 -123 38t-49 118z" />
<glyph unicode="&#x152;" horiz-adv-x="1959" d="M104 735q0 227 74 395t222.5 261.5t375.5 93.5q55 0 130 -6t120 -17h836v-317h-473v-230h436v-317h-436v-276h473v-322h-844q-43 -8 -117 -14t-127 -6q-221 0 -370.5 94t-224.5 264t-75 397zM520 733q0 -199 62.5 -311.5t193.5 -112.5q63 0 121.5 11.5t95.5 31.5v760 q-35 23 -93.5 36t-121.5 13q-131 0 -194.5 -114.5t-63.5 -313.5z" />
<glyph unicode="&#x153;" horiz-adv-x="2007" d="M86 569q0 281 151.5 432.5t417.5 151.5q225 0 375 -127q74 59 170.5 93t229.5 34q143 0 253.5 -57.5t174 -173t63.5 -289.5v-172h-696q4 -84 69.5 -143.5t190.5 -59.5q78 0 173 18.5t191 67.5v-281q-84 -43 -177 -63t-238 -20q-111 0 -209.5 32.5t-173.5 104.5 q-150 -137 -402 -137q-164 0 -291 68.5t-199.5 200.5t-72.5 320zM485 569q0 -145 38 -222t130 -77q90 0 128 77t38 222q0 143 -38 218t-130 75q-90 0 -128 -74.5t-38 -218.5zM1231 707h340q-2 74 -44 127t-120 53q-72 0 -120 -40t-56 -140z" />
<glyph unicode="&#x178;" horiz-adv-x="1359" d="M0 1462h430l250 -542l252 542h428l-481 -891v-571h-398v559zM268 1743q0 82 49.5 120t120.5 38q70 0 121 -38t51 -120q0 -80 -51 -118t-121 -38q-72 0 -121 38t-49 118zM747 1743q0 82 49.5 120t122.5 38q70 0 121.5 -38t51.5 -120q0 -80 -51.5 -118t-121.5 -38 q-74 0 -123 38t-49 118z" />
<glyph unicode="&#x2c6;" horiz-adv-x="1071" d="M82 1241v29q39 37 87 89t94 107.5t77 102.5h393q33 -47 79 -103.5t94 -108.5t83 -87v-29h-254q-53 31 -100 66.5t-100 83.5q-53 -47 -97.5 -82t-97.5 -68h-258z" />
<glyph unicode="&#x2dc;" horiz-adv-x="1005" d="M82 1237q12 188 76.5 265t175.5 77q51 0 109.5 -23.5t116.5 -48t110 -24.5q18 0 39.5 16.5t31.5 81.5h183q-12 -184 -80 -263t-166 -79q-59 0 -119.5 23.5t-117 48t-107.5 24.5q-18 0 -39 -16t-33 -82h-180z" />
<glyph unicode="&#x2000;" horiz-adv-x="955" />
<glyph unicode="&#x2001;" horiz-adv-x="1911" />
<glyph unicode="&#x2002;" horiz-adv-x="955" />
<glyph unicode="&#x2003;" horiz-adv-x="1911" />
<glyph unicode="&#x2004;" horiz-adv-x="637" />
<glyph unicode="&#x2005;" horiz-adv-x="477" />
<glyph unicode="&#x2006;" horiz-adv-x="318" />
<glyph unicode="&#x2007;" horiz-adv-x="318" />
<glyph unicode="&#x2008;" horiz-adv-x="238" />
<glyph unicode="&#x2009;" horiz-adv-x="382" />
<glyph unicode="&#x200a;" horiz-adv-x="106" />
<glyph unicode="&#x2010;" horiz-adv-x="651" d="M43 393v312h565v-312h-565z" />
<glyph unicode="&#x2011;" horiz-adv-x="651" d="M43 393v312h565v-312h-565z" />
<glyph unicode="&#x2012;" horiz-adv-x="651" d="M43 393v312h565v-312h-565z" />
<glyph unicode="&#x2013;" horiz-adv-x="1024" d="M74 414v276h876v-276h-876z" />
<glyph unicode="&#x2014;" horiz-adv-x="2048" d="M74 414v276h1896v-276h-1896z" />
<glyph unicode="&#x2018;" horiz-adv-x="512" d="M20 899q18 74 47 176.5t63 205.5t67 179h278q-20 -92 -38.5 -196.5t-35 -205t-24.5 -181.5h-342z" />
<glyph unicode="&#x2019;" horiz-adv-x="512" d="M37 877q20 94 38.5 197.5t35 203.5t24.5 182h342l15 -22q-18 -74 -47 -176.5t-63 -206t-67 -178.5h-278z" />
<glyph unicode="&#x201a;" horiz-adv-x="632" d="M60 -286q20 94 38.5 197.5t35 203.5t24.5 182h342l15 -22q-18 -74 -47 -176.5t-63 -206t-67 -178.5h-278z" />
<glyph unicode="&#x201c;" horiz-adv-x="1021" d="M20 899q18 74 47 176.5t63 205.5t67 179h278q-20 -92 -38.5 -196.5t-35 -205t-24.5 -181.5h-342zM530 899q18 74 47 176.5t62 205.5t68 179h278q-18 -92 -37.5 -196.5t-35 -205t-25.5 -181.5h-342z" />
<glyph unicode="&#x201d;" horiz-adv-x="1021" d="M37 877q20 94 38.5 197.5t35 203.5t24.5 182h342l15 -22q-18 -74 -47 -176.5t-63 -206t-67 -178.5h-278zM547 877q18 94 37.5 197.5t35 203.5t25.5 182h342l14 -22q-18 -74 -46.5 -176.5t-61.5 -206t-68 -178.5h-278z" />
<glyph unicode="&#x201e;" horiz-adv-x="1142" d="M60 -286q20 94 38.5 197.5t35 203.5t24.5 182h342l15 -22q-18 -74 -47 -176.5t-63 -206t-67 -178.5h-278zM570 -286q18 94 37.5 197.5t35 203.5t25.5 182h342l14 -22q-18 -74 -46.5 -176.5t-61.5 -206t-68 -178.5h-278z" />
<glyph unicode="&#x2022;" horiz-adv-x="802" d="M74 748q0 129 43 208.5t117.5 115.5t166.5 36q90 0 165 -36t119 -115.5t44 -208.5t-44 -208t-118.5 -116t-165.5 -37q-92 0 -166.5 37t-117.5 116t-43 208z" />
<glyph unicode="&#x2026;" horiz-adv-x="1775" d="M86 166q0 106 62.5 149t150.5 43q82 0 143.5 -43t61.5 -149q0 -100 -61.5 -145.5t-143.5 -45.5q-88 0 -150.5 45.5t-62.5 145.5zM678 166q0 106 62.5 149t150.5 43q82 0 143.5 -43t61.5 -149q0 -100 -61.5 -145.5t-143.5 -45.5q-88 0 -150.5 45.5t-62.5 145.5zM1270 166 q0 106 62.5 149t150.5 43q82 0 143.5 -43t61.5 -149q0 -100 -61.5 -145.5t-143.5 -45.5q-88 0 -150.5 45.5t-62.5 145.5z" />
<glyph unicode="&#x202f;" horiz-adv-x="382" />
<glyph unicode="&#x2039;" horiz-adv-x="819" d="M74 561v27l389 483l280 -149l-272 -347l272 -348l-280 -147z" />
<glyph unicode="&#x203a;" horiz-adv-x="819" d="M76 227l272 348l-272 347l282 149l387 -483v-27l-387 -481z" />
<glyph unicode="&#x205f;" horiz-adv-x="477" />
<glyph unicode="&#x20ac;" d="M55 467v205h129q-2 8 -2 20.5v22.5q0 12 1 26.5t1 16.5h-129v205h148q47 242 204.5 381t421.5 139q90 0 181.5 -20.5t167.5 -55.5l-119 -299q-59 25 -113.5 38t-116.5 13q-113 0 -172 -53t-71 -143h338v-205h-353q-2 -6 -2 -17.5v-25.5v-23.5t2 -19.5h287v-205h-264 q33 -164 260 -164q76 0 142.5 14.5t123.5 40.5v-323q-53 -29 -126.5 -42t-164.5 -13q-244 0 -405.5 120.5t-212.5 366.5h-156z" />
<glyph unicode="&#x2122;" horiz-adv-x="1576" d="M37 1286v176h536v-176h-170v-545h-196v545h-170zM645 741v721h287l137 -479l150 479h276v-721h-195v400q0 16 1.5 51t5.5 59h-9l-151 -510h-164l-143 510h-9q6 -63 7 -110v-400h-193z" />
<glyph unicode="&#x25fc;" horiz-adv-x="1136" d="M0 0v1137h1137v-1137h-1137z" />
<glyph unicode="&#xfb01;" horiz-adv-x="1511" d="M45 840v192l158 96v19q0 219 89 319.5t296 100.5q88 0 159.5 -13.5t149.5 -40.5l-84 -253q-29 8 -64.5 14t-76.5 6q-86 0 -86 -117v-30h241v-293h-241v-840h-391v840h-150zM973 1415q0 104 60.5 139t146.5 35q84 0 146.5 -34.5t62.5 -139.5q0 -100 -62.5 -136t-146.5 -36 q-86 0 -146.5 36t-60.5 136zM983 0v1133h391v-1133h-391z" />
<glyph unicode="&#xfb02;" horiz-adv-x="1507" d="M45 840v192l158 96v19q0 219 89 319.5t296 100.5q88 0 159.5 -13.5t149.5 -40.5l-84 -253q-29 8 -64.5 14t-76.5 6q-86 0 -86 -117v-30h241v-293h-241v-840h-391v840h-150zM981 0v1556h391v-1556h-391z" />
<glyph unicode="&#xfb03;" horiz-adv-x="2357" d="M45 840v192l158 96v19q0 219 89 319.5t296 100.5q88 0 159.5 -13.5t149.5 -40.5l-84 -253q-29 8 -64.5 14t-76.5 6q-86 0 -86 -117v-30h241v-293h-241v-840h-391v840h-150zM891 840v192l158 96v19q0 219 89 319.5t296 100.5q88 0 159.5 -13.5t149.5 -40.5l-84 -253 q-29 8 -64.5 14t-76.5 6q-86 0 -86 -117v-30h241v-293h-241v-840h-391v840h-150zM1819 1415q0 104 60.5 139t146.5 35q84 0 146.5 -34.5t62.5 -139.5q0 -100 -62.5 -136t-146.5 -36q-86 0 -146.5 36t-60.5 136zM1829 0v1133h391v-1133h-391z" />
<glyph unicode="&#xfb04;" horiz-adv-x="2353" d="M45 840v192l158 96v19q0 219 89 319.5t296 100.5q88 0 159.5 -13.5t149.5 -40.5l-84 -253q-29 8 -64.5 14t-76.5 6q-86 0 -86 -117v-30h241v-293h-241v-840h-391v840h-150zM891 840v192l158 96v19q0 219 89 319.5t296 100.5q88 0 159.5 -13.5t149.5 -40.5l-84 -253 q-29 8 -64.5 14t-76.5 6q-86 0 -86 -117v-30h241v-293h-241v-840h-391v840h-150zM1827 0v1556h391v-1556h-391z" />
</font>
</defs>
</svg>
